<?xml version="1.0" standalone="no"?>
<!DOCTYPE svg PUBLIC "-//W3C//DTD SVG 1.1//EN" "http://www.w3.org/Graphics/SVG/1.1/DTD/svg11.dtd" >
<svg xmlns="http://www.w3.org/2000/svg">
<metadata></metadata>
<defs>
<font id="offshore_banking_businessRg" horiz-adv-x="200" >
<font-face units-per-em="2048" ascent="1638" descent="-410" />
<missing-glyph horiz-adv-x="469" />
<glyph horiz-adv-x="0" />
<glyph unicode="&#xd;" />
<glyph unicode=" " horiz-adv-x="469" d="M-41 -260l112 16h16l16 -16l16 16h80l64 -32v-16l-32 -32h-16l-64 16l-64 -16h-32l-32 32l-16 -16h-16l-32 32v16zM-41 1531v16h16l16 -16h16l64 32l16 -16h16l96 16v-16l48 16q160 -7 160 -32l16 16h62v-64h-30l-16 16v16l-16 -16h-32l-128 32q0 -48 -32 -48l-16 48 l-48 -32l-16 16l-16 -16h-16l-64 16l-64 -16zM359 -276l32 32h16l71 -11l-1 -59l-6 6l-16 -16h-64l-32 32v16z" />
<glyph unicode="!" horiz-adv-x="498" d="M-12 -261l192 32q48 0 48 -32v-32h-32l-32 32l-64 -48h-80l-32 32v16zM4 1532v16l32 32h64l64 -16l64 16h160l80 -16l16 16l18 -4v-40l-18 12h-16l-48 -32h-16l-16 16l-32 -32l-48 32l-32 -32l-48 16l-48 -16h-16l-16 16l-16 -16l-48 32h-16l-32 -32zM85 981h20l21 18h20 l19 -18l1 18l20 17l1 18h-60q3 90 -37 90q33 143 85 143h20l166 -18h20l20 18h20l20 -18l-25 -125l-3 -90l16 -125h-20l-21 -18l37 -71l-44 -126h20l19 -18l-22 -53l19 -54q-24 -107 -64 -107l-1 -18l3 -3l-102 21l-21 -18l-19 18h-20l-21 -18l-28 67h20l-20 18l1 18l21 18 v18l-38 54l1 18l129 -50l2 53q-111 -3 -135 162l-23 71zM100 51l14 20v20l-14 60l55 160h14q36 -40 124 -40v-20l55 40q82 -20 82 -60l-27 -40l27 -120q-27 0 -27 -60l-14 -19h-41l-110 59q0 -40 -97 -59zM267 1024l80 -38l-20 95h-60v-57zM276 -261l32 32h112l16 -16l16 16 h32l16 -16v16h2v-73l-18 -7l-160 32l-16 -16h-32v32zM276 806l20 -57h40l-20 19v19l20 19h-60z" />
<glyph unicode="&#x22;" />
<glyph unicode="#" />
<glyph unicode="$" />
<glyph unicode="%" />
<glyph unicode="&#x26;" />
<glyph unicode="'" horiz-adv-x="498" d="M-12 -245l16 16h32l48 -32l32 32h96q32 0 32 -48h48q0 48 48 48l48 -32l96 32l30 -30v-50h-30l-32 32l-64 -32l-48 16l-80 -16l-16 16l-80 -16h-48l-32 32l-16 -16h-64zM-12 1564l16 16h16l16 -16l16 16h80l16 -16l16 16h16l48 -32l80 32l128 -16l82 9v-58q-25 12 -50 33 q0 -32 -48 -32l-48 16v-32l-64 16l-288 -16zM96 1132v60l20 20q60 0 60 40l120 -40l40 40q40 0 60 -120l-40 -80h20q-54 -141 -14 -193v-20l-106 -67l-60 20h-20l-20 -20l-1 73q-39 127 -49 211z" />
<glyph unicode="(" />
<glyph unicode=")" />
<glyph unicode="*" />
<glyph unicode="+" />
<glyph unicode="," />
<glyph unicode="-" horiz-adv-x="807" d="M-12 -261l367 32q92 0 92 -32v-32h-62l-61 32l-122 -48h-153l-61 32v16zM19 1532v16l61 32h122l84 -11l32 -66l-24 13l-31 -16l-92 32h-30l-61 -32zM69 821l66 61q131 19 203 44l188 -23l79 4l30 -17q12 -57 65 -54l-27 -116l60 -34q9 -38 -144 -65l-97 15l4 -18 q-182 6 -309 23l-55 -22l-42 108l13 58l-4 18zM449 1580h303l72 -8v-52l-11 -4h-30l-31 16l-61 -32l-92 32l-61 -32l-87 15zM538 -261l61 32h214l11 -5v-63l-194 20l-31 -16h-61v32z" />
<glyph unicode="." horiz-adv-x="498" d="M-12 -261l192 32q48 0 48 -32v-32h-32l-32 32l-64 -48h-80l-32 32v16zM4 1532v16l32 32h64l64 -16l64 16h160l80 -16l16 16l18 -4v-40l-18 12h-16l-48 -32h-16l-16 16l-32 -32l-48 32l-32 -32l-48 16l-48 -16h-16l-16 16l-16 -16l-48 32h-16l-32 -32zM105 28v41l60 110 q-40 0 -60 96l60 41l20 -13h20l60 13l160 -55v-13q-40 -36 -40 -124h-20l40 -55q-20 -82 -60 -82l-40 27l-120 -27q0 27 -60 27zM276 -261l32 32h112l16 -16l16 16h32l16 -16v16h2v-73l-18 -7l-160 32l-16 -16h-32v32z" />
<glyph unicode="/" />
<glyph unicode="0" horiz-adv-x="1175" d="M-7 -236l48 16l112 -48q0 36 176 48l112 -16v-48l-48 -16l-224 16l-112 -16q0 32 -64 32v32zM-6 1529v16l31 32l32 -32l48 32l16 -48l80 48l128 -16v-32l-192 -32v16l-16 -16h-96zM100 340q40 0 60 120l-20 20h-20l20 100v260l40 60l-60 60q58 220 140 220l40 60 q100 -26 100 -100h40q0 60 40 60l60 -60v-80q-140 -151 -140 -240l-40 -40l20 -20v-40l-20 20h-20v-60h60v-20q0 -40 -60 -40l80 -100l-20 -20v-120q75 -180 140 -180q0 -200 -220 -200v20q0 50 80 60v40l-100 140l-20 -20v-20l60 -80v-20q0 -40 -60 -40l-160 160l20 60z M180 500l40 -40l20 20v80zM180 620h20l40 40h-60v-40zM220 820h20l40 40v40h-40l-20 -60v-20zM240 1040l20 -60h40q0 60 60 60v40h-20zM260 780h60v60zM361 1513v16l32 48q176 -12 176 -48l-64 -32l-48 16l-80 -16zM537 -236h144l16 -16h16l16 16v16l48 -16l144 16h16 l32 -32l-32 -32l-16 16h-16l-144 -32l-48 32l-80 -32l-64 16l-16 -16l-16 16v48zM585 1545v16h32l16 -16l16 16h48v-32l-32 -32h-32zM680 40q14 140 40 140l-20 20v20l40 40l40 -40l20 20v20l-20 20v20l40 160l-20 180v60q0 100 80 100v60h-20l-60 -20l-120 320 q91 78 180 80l20 -60l20 20q120 -47 120 -80l-20 -20v-20q60 0 80 -360l-20 -20h-20l40 -120l-20 -20v-20l20 -60q-46 0 -60 -100l40 -40v-180q0 -40 -100 -40q0 -59 -80 -100h-40l-80 20l-60 -20zM745 1513v16l32 48q197 -16 224 -48v32h32l16 -16h16l32 32l48 -48v-16 l-224 -16l-112 16l-48 -16zM760 1060q40 0 40 -60h40v20l-40 80zM840 200l20 -60h40v60l-60 20v-20zM840 300l20 -20h40v20l-20 20v20l60 80h-100l20 -60zM920 940l20 -80h40l40 40l-60 60v20zM940 260l40 40v20l-40 -40v-20zM985 -236l96 16l112 -16v-32l-192 -32l-16 16 v48z" />
<glyph unicode="1" horiz-adv-x="498" d="M-12 -261l192 32q48 0 48 -32v-32h-32l-32 32l-64 -48h-80l-32 32v16zM4 1532v16l32 32h64l64 -16l64 16h160l80 -16l16 16l18 -4v-40l-18 12h-16l-48 -32h-16l-16 16l-32 -32l-48 32l-32 -32l-48 16l-48 -16h-16l-16 16l-16 -16l-48 32h-16l-32 -32zM96 699v20l40 60v20 l-20 20v20l20 20h-20l60 80l20 -20h20l20 20l20 -20v40h-40v40l100 120v40l-160 -60l20 -20v-20l-60 -80l-20 100l40 40l-20 20v40l100 80l20 -20l20 20h60q100 -51 100 -160v-40q0 -60 -120 -60v-20h80v-20l-20 -20v-20q40 0 60 -120l-20 -60l20 -60l-20 -20h-20l40 -140 l-40 -80l20 -20h20l-20 -140v-100l20 -140l-20 -20h-20l-20 20h-20l-120 -20h-20q-52 0 -80 160q40 0 40 100h60v20l-20 20v20l-20 -20h-20l-20 20h-20l20 100l-20 80q0 180 140 180v60zM196 579h60l20 100l-80 -40v-60zM276 -261l32 32h112l16 -16l16 16h32l16 -16v16h2 v-73l-18 -7l-160 32l-16 -16h-32v32zM276 499h60l-20 20v20l20 20h-40z" />
<glyph unicode="2" horiz-adv-x="1141" d="M-8 -260l112 16h16l16 -16l16 16h80l64 -32v-16l-32 -32h-16l-64 16l-64 -16h-32l-32 32l-16 -16h-16l-32 32v16zM-8 1531v16h16l16 -16h16l64 32l16 -16h16l96 16v-16l48 16q160 -7 160 -32l16 16h80l160 16v-16l16 16h16l64 -48q0 48 32 48h32l96 -16l16 16h16l80 -16 l115 10v-57l-3 -1h-64l-16 16l-192 -32l-32 32h-48l-48 -32h-16l-64 48q-57 -48 -208 -48l-16 16v16l-16 -16h-32l-128 32q0 -48 -32 -48l-16 48l-48 -32l-16 16l-16 -16h-16l-64 16l-64 -16zM92 965q74 196 240 300q120 -13 120 -80l-20 -60l60 40l40 -40v-60 q-116 -120 -200 -120l-40 40l-40 -40q80 -10 80 -60l-40 -40zM132 105v100l40 40l-20 20v20l140 80l280 -80l140 40l40 -60l120 40h40q120 -51 120 -220q-91 -80 -180 -80l-40 60q-91 0 -180 -60l-40 40l-20 -20h-20l-80 20l-60 -20l-80 20l-40 -40q-104 0 -160 100z M192 125h60l-20 60h-40v-60zM292 165h20l100 40q-30 80 -60 80zM392 -276l32 32h16l96 -16l16 16l80 -16l80 16l16 -16h16l48 16l32 -32l32 32l64 -16l64 16v-16l16 16h64q32 0 32 -48h16q0 48 32 48h35v-80h-19l-64 16l-64 -16h-32l-32 32l-144 -32l-128 32l-32 -32l-48 16 l-96 -16l-16 16l-16 -16h-64l-32 32v16zM452 165l160 -100h20v20q0 60 -80 60l40 80h-80q0 -40 -60 -40v-20zM472 645l80 60l120 -40v40q-60 0 -60 40q94 140 140 140v40l-20 20v20h20l100 -20l-40 100h-60q0 -60 -40 -60l-60 160q0 71 160 120q92 -32 220 -200v-20l-40 -60 v-20q80 0 80 -40l-120 -260q-117 -52 -280 -200l-40 40l-100 -20q-60 13 -60 160zM712 165l20 -60h20v100zM752 745h20l20 60h-40v-60zM772 645h60v20l-40 40h-20v-60zM812 1085l60 -20v60h-20zM852 745l40 -40l20 20v20h-60zM872 1025l40 -40v60h-40v-20z" />
<glyph unicode="3" horiz-adv-x="1162" d="M-11 -236l48 16l112 -48q0 36 176 48l112 -16v-48l-48 -16l-224 16l-112 -16q0 32 -64 32v32zM-10 1529v16l31 32l32 -32l48 32l16 -48l80 48l128 -16v-32l-192 -32v16l-16 -16h-96zM96 365v20l80 100l40 -40l100 20h20q60 -12 60 -160q100 0 100 -40l-60 -20l-60 20v-20 l120 -80l-20 -60l40 -40l-100 -40q-60 0 -200 100q-120 139 -120 240zM136 985l80 140l60 -20v20q6 100 60 100h80q40 0 40 -60l20 20h20l20 -20v-20q0 -40 -60 -40l60 -80v-40q-80 0 -80 -80l-140 -60h-40q-36 0 -120 140zM236 925l40 40v80h-20l-20 -100v-20zM276 225h80 v20l-80 20v-40zM357 1513v16l32 48q176 -12 176 -48l-64 -32l-48 16l-80 -16zM533 -236h144l16 -16h16l16 16v16l48 -16l144 16h16l32 -32l-32 -32l-16 16h-16l-144 -32l-48 32l-80 -32l-64 16l-16 -16l-16 16v48zM581 1545v16h32l16 -16l16 16h48v-32l-32 -32h-32zM596 105 q13 160 60 160l80 -20q0 40 60 40l20 200h-20l-20 -20h-20q-140 48 -140 80v140l200 160v40q0 120 -160 120l-40 200l60 40h20l40 -40l20 20h20q208 -37 280 -180v-180q0 -117 -80 -240l80 -100l-60 -60v-40q60 0 60 -40v-100l-120 -220l-20 -20h-20l-60 20l-120 -40 q-120 0 -120 80zM716 545l80 -20v60l-80 20v-60zM736 725l40 -40v20l-40 40v-20zM741 1513v16l32 48q197 -16 224 -48v32h32l16 -16h16l32 32l48 -48v-16l-224 -16l-112 16l-48 -16zM776 205q0 -30 80 -60v60h-80zM796 665l40 -100h20v20l-20 80h-40zM816 285q0 -34 100 -60 v40l-20 20v20q80 0 80 40l-40 40v40l20 100h-80v-20l40 -60l-60 -80v-20l20 -20v-20zM836 845l20 -80h40l60 60l-60 60q0 -40 -60 -40zM836 1085q40 -60 40 -160h60l-40 180zM896 625h40v60l-40 -40v-20zM981 -236l96 16l112 -16v-32l-192 -32l-16 16v48z" />
<glyph unicode="4" horiz-adv-x="1200" d="M-1 -260l32 32l80 -16l64 16l64 -16q0 -31 -96 -64l-96 16h-48v32zM0 1529v32l207 16l96 -16l80 16l16 -16h16l64 16l16 -16v-16l16 16h32l32 -32l-48 -32h-16l-48 32l-16 -16v-16l-128 32l-32 -32h-64l-64 16l-48 -16l-16 48h-16q0 -48 -32 -48h-16zM100 460v120 q171 191 220 320l140 60q0 -33 120 -80v-20q0 -117 -80 -200v-80l80 -120q0 -100 -140 -100l-20 -20v-20l-100 20l-120 -20zM220 420h60v20l-20 60h-40l20 -20l-20 -20v-40zM239 -260l80 16l-48 -48zM300 580h40v-80l-20 -20v-20l20 -20h20l80 80v20q-80 0 -80 40v40 q60 0 60 60l-20 20h-20l-80 -80v-40zM335 -276l32 32h16l48 -16l32 32h32l48 -32l64 16l16 -16h16l64 16l48 -32l48 48h176l16 -16l16 16h16l32 -32q-10 -48 -128 -48v16l-16 -16h-64l-32 32l16 16h-16l-64 -48h-32v16l-160 -16l-128 16l-96 -16v32zM620 140q40 0 40 100 q80 20 80 100h-20l-20 -20h-20l-20 20l20 100l-20 160q14 120 40 120l-40 140l20 60l-40 40l60 280q180 0 240 -140l-40 -40l20 -80l-40 -40l40 -60v-280q180 -26 180 -180l-60 -80l-60 40h-40q0 -80 -40 -80l20 -60l-20 -80l20 -80l-100 -80h-20l-80 40l-60 -20zM623 1545 l32 32h32l64 -48h48l-16 16v16l16 16h32q80 -4 80 -32l16 16h160l80 16l32 -32l1 1v-49h-1l-64 16l-16 -16l-96 16l-336 -16zM740 440l60 20v100l-40 40zM740 740h100v20l-40 100l40 40l-100 20v-180zM780 280l20 -20h40l-20 140h-40v-20l20 -20v-20zM820 640l20 -20h20v60z M1087 -244l16 16h32l64 -16l1 1v-49h-1l-16 16l-16 -16h-64z" />
<glyph unicode="5" horiz-adv-x="1099" d="M-8 -293l32 64l288 -16l64 16v-32l48 16q48 0 48 -32q58 48 112 48l32 -32l-32 -48l-144 16l-128 -16l-80 32l-48 -32h-16l-16 16l-16 -16h-80l-16 16l-16 -16h-16zM-8 1516l16 48h64l16 -16l32 32h48l80 -16l16 16l80 -16l48 16l64 -32l32 32h96q32 0 32 -48l128 48 l160 -32l16 16h32v-32l-32 -32h-112l-16 16l-16 -16h-32l-16 16v-16l-48 16h-16l-16 -16l-48 16l-16 -16h-16l-48 32l-32 -32l-96 32l-48 -32q-48 0 -48 48h-48q0 -48 -32 -48h-96l-32 32l-48 -32h-32zM100 460v40l60 100l80 -20l100 20l20 -20v-20q-100 -26 -100 -60 q120 0 120 -40l-20 -20v-20q0 -101 160 -220q-72 -200 -180 -200l-40 80l-60 -20l-20 60l-20 -20h-20q-60 97 -60 260l40 40zM100 920l20 20v20l-20 60l40 40v20l-40 60v40q0 46 100 60l20 -60l-20 -60h40q0 100 40 100q100 0 100 40l20 -20l140 20l120 -20l60 20l80 -60 l-20 -20v-20q40 0 40 -60h20q0 80 60 80l-20 20v20l40 40q40 0 100 -200l-60 -80h-40l-20 20l-20 -20h-80v40h-60v-60h-40l-40 40q46 0 60 100q-30 80 -60 80h-20v-40l40 -60v-20q0 -46 -100 -60q0 60 -80 60l-20 20l-20 -20q0 -100 -140 -100v-20q51 0 60 -100l-80 -60 l-20 20h-20l-80 -20l-40 40l20 20v20zM200 340h40v60h-20zM220 240q60 0 120 120h-20l-100 -60v-60zM260 180l140 20l-60 60h-20l-60 -60v-20zM260 1040l60 -20l60 80v20h-40l-20 20l-60 -60v-40zM440 1160h20l40 40h-20zM600 680v80q20 60 120 60h60l160 -120l-20 -20v-20 q60 0 80 -260l20 -20v-20q-88 -120 -240 -120l-40 120h40l-80 180v20l20 20v20q-120 41 -120 80zM664 -277l32 32l48 -32h16l48 32h16l16 -16l32 32l48 -32l32 32l48 -16l48 16h16l16 -16l16 16l7 -4v-69l-39 9l-64 -16h-160l-80 16l-16 -16l-80 16v16zM760 640l80 -20v20 l-60 60zM840 520h80l-20 60l-60 -20v-40z" />
<glyph unicode="6" horiz-adv-x="1120" d="M-7 1513v32q64 0 64 32l112 -16l224 16l48 -16v-48l-112 -16q-176 12 -176 48l-112 -48zM-6 -252l31 32h96l16 -16v16l192 -32v-32l-128 -16l-80 48l-16 -48l-48 32l-32 -32l-31 32v16zM100 740l20 140l-20 20v20q0 140 100 260l60 -20q0 44 180 60l60 -100v-60l-40 -40 l-20 20q0 -180 -140 -180v-20q80 0 80 -120v-20q-80 -90 -80 -140h60v-20l-40 -60l140 -260q40 0 40 -100l-60 -80h-120q-200 86 -200 220l20 20h20l-40 120l20 20l-20 20v60l40 60q-44 0 -60 180zM140 660l20 -80h20l40 40v40h-80zM180 420l20 -20h40v20l-40 40l-20 -20 v-20zM180 1040l80 -180h20v60q-40 160 -80 160l-20 -20v-20zM200 140h20l40 40v40l-60 20v-100zM240 340h80v20h-80v-20zM361 -236l16 16l80 -16l48 16l64 -32q0 -35 -176 -48l-32 48v16zM537 1513v48l16 16l16 -16l64 16l80 -32l48 32l144 -32h16l16 16l32 -32l-32 -32h-16 l-144 16l-48 -16v16l-16 16h-16l-16 -16h-144zM585 -268l48 48h32l32 -32v-32h-48l-16 16l-16 -16h-32v16zM620 80v20l20 20l-20 20v20q154 154 180 240q-87 0 -180 140q0 104 100 160q140 0 260 -140v-20l-20 -20v-20l60 -20l-60 -140h40v-40l-20 -20v-20l40 -40l-140 -160 h-20l-40 40l-100 -60h-20zM620 1140q0 55 220 100l40 -60l60 20l20 -20v-20l-20 -60q80 -30 80 -60l-20 -20l20 -20v-100l-60 -60l-20 20h-20l-100 -20v20l60 80h-60v-60q-52 0 -200 260zM745 -236l16 16l48 -16l112 16l224 -16v-16l-48 -48l-32 32h-16l-16 -16h-32v32 q-27 -32 -224 -48l-32 48v16zM840 420l40 -40h40l-20 100h-60l20 -20l-20 -20v-20zM985 1513v48l14 16l171 -32v-32l-100 -16z" />
<glyph unicode="7" horiz-adv-x="1149" d="M-8 -245l16 16h32l48 -32l32 32h96q32 0 32 -48h48q0 48 48 48l48 -32l96 32l32 -32l48 32h16l16 -16l48 16l16 -16h16l48 16v-16l16 16h32l16 -16l16 16h112l32 -32v-32h-32l-16 16l-160 -32l-128 48q0 -48 -32 -48h-96l-32 32l-64 -32l-48 16l-80 -16l-16 16l-80 -16 h-48l-32 32l-16 -16h-64zM-8 1564l16 16h16l16 -16l16 16h80l16 -16l16 16h16l48 -32l80 32l128 -16l144 16l32 -48l-32 -32q-54 0 -112 48q0 -32 -48 -32l-48 16v-32l-64 16l-288 -16zM100 1080q13 160 60 160h20l60 -40h40l60 40l20 -80h40l-20 20v20l60 40h80l40 -40v-20 l-20 -20l20 -20v-120l-40 -40h-40l-60 40q0 -60 -260 -60zM300 140l20 20h20l20 -20h20v40q-60 0 -60 40q86 77 140 300q76 18 100 160l60 -20v-40l-20 -20l20 -60h40v80l-20 20v20l20 20q-46 0 -80 80q0 50 80 60l-20 60q94 260 180 260l-20 20v40q0 40 160 60 q80 -90 80 -220q-33 0 -80 -120h-20q-32 0 -120 160h-20l-20 -60l80 -80v-40h-40l-60 40l-20 -20v-60l100 -20l40 40h20v-100q-41 -80 -100 -80l40 -60q0 -68 -120 -200q-72 -240 -140 -240h-20l20 -20v-80q0 -60 -200 -80zM460 240l20 20h20l20 -20v40l-60 20v-60zM480 340 l60 40l60 -20h20v20q-60 0 -60 40l40 40l-20 60h-20q0 -120 -80 -120v-60zM664 1548v16l80 16l16 -16l80 16h160l64 -16l64 16h30v-48h-14l-48 -32l-16 16l-16 -16h-16l-48 16l-48 -16l-32 32l-48 -32l-32 32l-16 -16h-16l-48 32h-16l-48 -32zM700 760l20 -60h20l20 60h-60z M1000 -261q0 32 48 32l110 -18v-62h-30l-64 48l-32 -32h-32v32z" />
<glyph unicode="8" horiz-adv-x="1166" d="M-7 -248l32 32h32l64 -16l64 16l32 -32v-16l-32 -32q-32 0 -32 48h-32v-48q-128 16 -128 48zM9 1560l16 16h32l80 -16l96 16l32 -32v-32h-64l-48 32h-16l-96 -48zM96 340q0 131 140 200l20 20l-20 60h-20v-40h-40v140l20 20v20l-60 60v100l20 80l-20 60q54 1 120 140 l60 20l120 -20l40 40h20l40 -40l-20 -20l20 -100v-60l-60 -60h-20l-140 20q0 -40 60 -40v-40h-100l200 -180l20 20h20l40 -40q-15 -220 -60 -220h-120l-20 -100v-20q0 -33 200 -160l-20 -20v-20l20 -120l-20 -20h-60l-60 40l-60 -40q-140 60 -200 200l20 20q-52 0 -80 100z M233 -232l16 16h64l48 -32h64l48 32h208l48 -64l-16 -16l-160 16h-64l-16 16h-16l-32 -32h-96l-16 16l-16 -16h-32l-32 32l16 16zM236 260l100 -80v20l-40 60l20 60l-80 -20v-40zM236 680h20l100 60v20l-60 20zM313 1512v48h16l16 -16h16l32 32l16 -16l112 16h208v-32 l-48 -48h-16l-128 32l-16 -16v-16l-80 16l-112 -16zM416 100l20 -20h20l20 20v80h-40zM436 680l20 -60l40 40v20h-60zM616 1000q20 220 60 220l20 -20l100 20h40q139 -46 220 -160q0 -40 -60 -40v-20q60 0 60 -40v-100l-40 -40l20 -20v-20q0 -60 -80 -60v-20q60 0 60 -40 l-20 -20h-20l-20 20h-20v-60l40 -40q0 60 40 60l20 -20v-20l-20 -20l40 -200l-60 -80l60 -60q-1 -41 -180 -200l-20 20l20 20v40h-40q0 -80 -60 -80h-100l-40 40v20l40 40l-40 120v20q157 0 180 80v40l-20 60h40v20l-60 60l-100 -20l-40 60v40l60 120h-40l40 40l40 -40v20 l120 -60l40 60v20l-20 -20h-60l-40 40l40 120q0 80 -40 80l-60 -20l-20 20v20l-20 -20h-20l-20 20h-20zM761 -248l32 32h32l48 -48l-32 -32l-80 32v16zM761 1560l16 16h80l48 -32l32 32h16l80 -16v-32l-32 -32l-48 32l-64 -32q-128 19 -128 64zM816 560l20 -60h20v60h-40z M876 160h40v20l-40 40v-60zM889 -248l32 32h96l64 -16l64 16l32 -32q0 -32 -48 -32l-160 16l-64 -16l-16 16v16zM1049 1560l16 16h96v-16l-16 -48q-83 0 -96 48z" />
<glyph unicode="9" horiz-adv-x="1137" d="M-5 -260l32 32h16l64 -16l64 16h32l16 -16l-16 -48h-64l-16 16l-16 -16h-48l-16 16v-16l-16 -16l-32 32v16zM11 1513v64h64l32 -32l32 32l80 -16h160l16 -16q0 28 80 32h32l16 -16v-16l-16 -16h48l64 48h32l32 -32l-64 -48l-336 16l-96 -16l-16 16l-64 -16q-32 0 -32 48 h-32v-32h-32zM96 920v20q80 0 80 40l-40 60q56 0 100 140l180 60h20l60 -60l-20 -80l20 -60q-80 0 -100 -120l-80 -60h-40v60h-60l-20 -80l20 -80l40 40l-20 20l20 20h20l60 -60h20l-20 20v20l20 20h60l40 -40v-100h-80l40 -40l60 40h40l-40 -60l40 -40l-180 -60 q0 33 -120 80v100l-20 -20h-60l20 100q-60 20 -60 120zM116 300v20q38 72 120 100q300 -98 300 -340l-160 -40v20l-20 -20h-20q-120 34 -120 140zM251 -260l32 32h16l16 -16l16 16h176l48 -48l48 32l64 -16h16l16 16l64 -16l48 32h32l32 -32l48 16h16l32 -32v-32l-96 16 l-128 -16l-160 16v-16h-32l-64 48h-16l16 -16l-32 -32h-64l-16 16v-16q-118 0 -128 48zM296 920l60 60v20h-40zM636 1040l40 60l-20 20v20l80 80h20l100 -60l20 20h40l100 -100l-20 -100v-60l40 -60v-80l-40 -40l40 -300l-20 -60l20 -20v-20q-102 -300 -280 -300 q0 34 -100 60v40l20 80l-20 60q37 0 140 140l-40 40h20l60 -20v20l20 20v20q-60 0 -120 120l60 160l-20 60l80 20v20l-40 60q0 40 80 40l20 20v20q-80 10 -80 60h-40l20 -20l-40 -60l20 -20v-60l-40 -40q-40 0 -40 100q-80 0 -80 60zM731 1529l32 32h32l16 -16v16l16 16 l64 -16h16l16 16l80 -16l96 16l51 -4v-61l-3 1l-64 -16h-64l-32 32l-128 -32v16l-16 16l-48 -32h-16zM876 220h60v60h-40zM896 460l20 -60h60v40l-40 100h-20zM936 860l20 -60h20v100zM987 -244l80 -16l-32 -32zM1067 -244l64 16l19 -4v-71q-83 31 -83 59z" />
<glyph unicode=":" horiz-adv-x="498" d="M-12 -261l192 32q48 0 48 -32v-32h-32l-32 32l-64 -48h-80l-32 32v16zM4 1532v16l32 32h64l64 -16l64 16h160l80 -16l16 16l18 -4v-40l-18 12h-16l-48 -32h-16l-16 16l-32 -32l-48 32l-32 -32l-48 16l-48 -16h-16l-16 16l-16 -16l-48 32h-16l-32 -32zM78 834l35 65 q69 20 106 46l99 -24l41 5l16 -19q6 -59 34 -56l-15 -122l32 -37q5 -40 -75 -69l-51 17l2 -20q-96 7 -127 -36l-13 -2l-73 153l7 61l-2 20zM105 28v41l60 110q-40 0 -60 96l60 41l20 -13h20l60 13l160 -55v-13q-40 -36 -40 -124h-20l40 -55q-20 -82 -60 -82l-40 27l-120 -27 q0 27 -60 27zM276 -261l32 32h112l16 -16l16 16h32l16 -16v16h2v-73l-18 -7l-160 32l-16 -16h-32v32z" />
<glyph unicode=";" />
<glyph unicode="&#x3c;" />
<glyph unicode="=" />
<glyph unicode="&#x3e;" />
<glyph unicode="?" horiz-adv-x="1141" d="M-8 -260l112 16h16l16 -16l16 16h80l64 -32v-16l-32 -32h-16l-64 16l-64 -16h-32l-32 32l-16 -16h-16l-32 32v16zM-8 1531v16h16l16 -16h16l64 32l16 -16h16l96 16v-16l48 16q160 -7 160 -32l16 16h80l160 16v-16l16 16h16l64 -48q0 48 32 48h32l96 -16l16 16h16l80 -16 l115 10v-57l-3 -1h-64l-16 16l-192 -32l-32 32h-48l-48 -32h-16l-64 48q-57 -48 -208 -48l-16 16v16l-16 -16h-32l-128 32q0 -48 -32 -48l-16 48l-48 -32l-16 16l-16 -16h-16l-64 16l-64 -16zM92 965q74 196 240 300q120 -13 120 -80l-20 -60l60 40l40 -40v-60 q-116 -120 -200 -120l-40 40l-40 -40q80 -10 80 -60l-40 -40zM392 -276l32 32h16l96 -16l16 16l80 -16l80 16l16 -16h16l48 16l32 -32l32 32l64 -16l64 16v-16l16 16h64q32 0 32 -48h16q0 48 32 48h35v-80h-19l-64 16l-64 -16h-32l-32 32l-144 -32l-128 32l-32 -32l-48 16 l-96 -16l-16 16l-16 -16h-64l-32 32v16zM414 27v42l60 110q-40 0 -60 96l60 41l20 -14h20l60 14l160 -55v-14q-40 -35 -40 -123h-20l40 -55q-20 -83 -60 -83l-40 28l-120 -28q0 28 -60 28zM472 645l80 60l120 -40v40q-60 0 -60 40q94 140 140 140v40l-20 20v20h20l100 -20 l-40 100h-60q0 -60 -40 -60l-60 160q0 71 160 120q92 -32 220 -200v-20l-40 -60v-20q80 0 80 -40l-120 -260q-117 -52 -280 -200l-40 40l-100 -20q-60 13 -60 160zM752 745h20l20 60h-40v-60zM772 645h60v20l-40 40h-20v-60zM812 1085l60 -20v60h-20zM852 745l40 -40l20 20 v20h-60zM872 1025l40 -40v60h-40v-20z" />
<glyph unicode="@" />
<glyph unicode="A" horiz-adv-x="999" d="M-38 -224l41 -8l89 16l45 -32v-16l-45 -32q-45 0 -45 48h-44v-48q-21 2 -41 5v67zM-9 1522v47l50 -9l108 16l36 -32v-32h-72l-54 32h-18zM16 176q80 165 80 300l40 40l14 89l80 80l26 -29l20 -20l20 20h60q44 0 80 -160l-60 -20l20 -60l20 20h60l38 -60l-21 -142 q-34 18 -134 18q0 -60 -60 -100q-3 -156 -63 -156h-20l-100 20l-20 -20l-60 80l40 60q-60 0 -60 40zM153 -232l16 16h64l48 -32h64l48 32h208l48 -64l-16 -16l-160 16h-64l-16 16h-16l-32 -32h-96l-16 16l-16 -16h-32l-32 32l16 16zM156 276h20l60 -20v80l-20 20v20l60 60 v40l-120 -80l20 -60zM233 1512v48h16l16 -16h16l32 32l16 -16l112 16h208v-32l-48 -48h-16l-128 32l-16 -16v-16l-80 16l-112 -16zM396 1136v60l80 60q200 -29 200 -80q0 -100 -60 -100v-60h20l60 20l120 -360l-20 -20h-20l180 -460l20 -20l-40 -60l-20 20h-40q0 -40 60 -40 v-20q-20 -60 -120 -60h-40l-20 20l-20 60q-100 0 -100 100l-60 240l80 40v40q-54 0 -100 100l20 80q-80 0 -80 60l-60 160l20 20h20q0 60 -60 60l20 100zM496 876h20l40 40l-60 40v-80zM636 796l60 20v100l-60 -60v-60zM681 -248l32 32h32l48 -48l-32 -32l-80 32v16z M681 1560l16 16h80l48 -32l32 32h16l80 -16v-32l-32 -32l-48 32l-64 -32q-128 19 -128 64zM696 296q39 -91 80 -100l20 20v40q-60 0 -60 60l-20 20h-20v-40zM696 636h60l-40 40l-20 -20v-20zM809 -248l41 32h122l73 -14v-44l-134 10l-82 -16l-20 16v16z" />
<glyph unicode="B" horiz-adv-x="1104" d="M-11 -232l16 16l160 -32l16 16h64l16 -16l16 16h32l32 -32l-32 -32h-32l-96 16l-48 -16l-48 16h-16l-16 -16q-64 0 -64 48v16zM85 1528v16l16 16l48 -16l96 32h32l32 -32l-96 -48h-96zM92 116l20 20l-20 20v40l40 60l20 -20h40l-100 100q0 220 120 220v20 q-100 0 -100 100h-20l20 100l-20 120l20 20h20l-40 280l120 40l20 -20l20 20h60l60 -60v-60l-20 -20l40 -120l-40 -40v-20l40 -40l-20 -100l20 -280l-60 -60h40v-80l-20 -20l40 -140l-40 -40l40 -40v-20q-12 -48 -140 -100q-105 0 -160 120zM152 976l40 -80l60 20l-20 80 h-40l-20 -20h-20zM172 796l40 40v40h-40v-80zM192 696l80 -40h20l20 80l-20 20l20 20h-40zM232 336h60v20l-60 20v-40zM272 636l20 -60l40 40v20h-60zM309 1528v16h32l16 -16v-16l-16 -16zM373 -248l32 32l64 -16l64 16h96l32 -32v-16l-16 -16l-64 16l-160 -16q-48 0 -48 32 zM389 1560v16h96l16 -16q-13 -48 -96 -48zM517 1528v32l80 16h16l32 -32l48 32h80l16 -16q0 -45 -128 -64l-64 32l-48 -32zM532 76v20h60v20l-60 80q0 50 80 60l60 -20q56 160 160 160l-100 80v20h-20v-40h-60l-100 80l40 60q-40 0 -60 120l60 40h40l20 -20l20 20h60 q0 -60 -100 -60v-80l100 -40q12 116 60 180v20q-100 155 -100 220l-20 -20h-80l-40 40l40 40q-60 0 -60 40v100l40 40h140l180 -100q0 -40 60 -40l20 -20v-20l-20 -60q40 0 60 -200l-60 -40q0 54 -100 100v-40q59 0 100 -80q-20 -120 -60 -120l-20 20q-80 -16 -80 -160 l60 -20l-1 17l61 -37v40h-40q26 100 60 100l80 -160l-40 -40l20 -20v-20l-20 -80l20 -60l-120 -100q-60 0 -60 -60l-20 -20h-20l-60 20l-120 -20zM652 156l60 20v20l-60 20v-60zM652 1056h180v60l-120 -40l-40 40zM677 -264l48 48h32l32 -32v-16l-80 -32zM821 -280l48 64 h208l44 -29v-47l-28 28h-16l-16 -16h-64l-160 -16zM821 1544v32h208l92 -13v-53l-12 2l-80 -16v16l-16 16l-128 -32h-16zM832 336h40l60 60h-20l-80 -20v-40z" />
<glyph unicode="C" horiz-adv-x="1187" d="M-11 -255l16 16l96 -32l16 48l80 -16l48 16l16 -16h16l96 16l96 -16l64 16l16 -48h32q0 48 112 48l16 -16h16l64 16l16 -48h16q0 48 32 48h64l32 -32v-16h-16l-48 16v-16l-16 -16v-16l-96 16l-192 -16l-48 16l-16 -16h-16l-16 16h-16l-80 -16l-16 16v16l-80 -16h-32 l-16 16h-16l-32 -32l-48 16l-16 -16h-16l-96 32l-16 -16l-16 16v16zM5 1515l48 48h112l32 -32l-32 -32zM100 476l20 260v180l-20 140q177 200 300 200q91 -39 100 -80l-40 -100h20l40 -40l-80 -60q-66 -139 -120 -140l-40 40h-40v-120h40l60 40h20v-40l-60 -60l-20 20h-20 l-40 -60v-60h20q0 80 120 80l40 -80l-20 -140l20 -60l-80 -40v-20q104 0 160 -100l-20 -20v-20l40 -40q-27 -140 -80 -140h-20l-40 40v80h60v20q-60 0 -60 80h-60v-60l40 -60l-20 -100h-60q-32 0 -140 180v60zM180 816l20 -80h20v80h-40zM180 1056h60l80 20v20h-20l-120 -20 v-20zM200 336h40q0 60 60 60l-20 60l-80 -20l20 -20v-20l-20 -20l20 -20zM240 956l20 -20l60 20v60zM293 1499v48l80 16l16 -16v-32q0 -32 -48 -32zM360 1056h60l-40 40h-20v-40zM485 1531v32h32l32 -32l48 16l48 -16l32 32h144v-16l-16 -16v-16l16 -16h-32l-48 32l-16 -48 l-16 16h-16l-144 -16l-48 48h-16zM620 176l180 160l-40 40q40 0 40 60l20 20h160q100 -51 100 -160q-60 0 -60 -120q-60 0 -60 -120l-160 -60q-140 0 -140 120l20 20q-60 0 -60 40zM660 1116v40q20 60 120 60h20l20 -20l20 20h40l140 -220q60 0 60 -40q-20 -100 -80 -100 l20 -20v-20l-60 -60h-60q-95 59 -220 280v20l40 60h-60zM760 216l60 -20l20 20v20l-20 20h-20zM780 1016h40v60h-40v-60zM820 96h20l40 40h-20zM837 1499v32l64 32h80l48 -32l32 32h80l32 -32v-32h-80l-64 16l-176 -32zM920 356l60 -20v40h-60v-20zM1013 -271l32 32h16 l16 -48l-16 -16h-16zM1125 -239l64 16h11v-78l-75 30v32z" />
<glyph unicode="D" horiz-adv-x="1200" d="M-2 1532v48h63l80 -16l16 16l48 -48l64 48h64l48 -32l48 32l48 -48l-32 -32h-32l-32 32h-16l-16 -16h-32l-16 16l-32 -32l-80 16l-96 -16h-64zM58 -281l64 64l32 -32v-16l-64 -32h-32v16zM100 196l80 240l40 40q-52 0 -80 160v20l20 20l-60 260l60 60l-20 60l20 20h20 l40 -40v40l-20 60l-60 -40l-20 20v20l80 100h20l80 -20l60 20l40 -80l-20 -80l20 -20l-40 -40l60 -60v-40l-40 -80l40 -60q-20 -100 -80 -100v-40h40v-100l20 -20v-20h-60l80 -220q0 -160 -100 -160v-20h100v-40l-20 -20v-20q-280 0 -280 80zM180 236h60l-40 40h-20v-40z M186 -265l32 32h48l48 -32v32h128l16 -16l112 32v-16l16 -16l80 32l64 -16h16l16 16l176 -16l80 16l16 -16l64 16q58 -48 112 -48v-32h-32l-48 32l-144 -32q-48 0 -48 32l-80 -16h-80l-16 16q0 -32 -160 -32h-16l-32 32l-224 -32zM200 776q0 -30 80 -60q0 73 60 160l-20 20 h-60q0 -40 -60 -40v-80zM220 536h40l20 60h-20l-40 -40v-20zM240 356l40 -120q40 0 60 120h-20q-40 0 -40 60h-40v-60zM509 1516v16l16 16l16 -16l80 48h80l48 -32h16l48 32h16l32 -32l240 32v-16l16 -16l48 32h50l-2 -76q-7 -4 -16 -4h-32l-144 16h-16l-16 -16h-16l-16 16 l-96 -16h-16l-16 16l-96 -16h-48l-32 32l-80 -16h-64zM560 96v20l20 20l-20 20v40q0 33 120 80l20 20q0 40 80 40v80h60q0 -100 40 -100h20v40q-120 158 -120 260l40 80q0 201 -140 240q0 80 -100 80l-20 20v40l20 20l-20 20v20q26 100 60 100h160q40 0 80 -160l100 -20v40 h40v-60q-60 0 -60 -60h60l60 40l20 -20v-140l-60 -60l-40 40v20l20 20v20h-40q-40 0 -60 -120h20l100 -40l40 40l40 -60l-60 -20l40 -160l-20 -20l20 -100q-15 -200 -80 -200l20 -20v-20l-40 -40l-40 40q0 -100 -60 -100h-20v40h-20q-46 0 -60 -100h-80l-40 40l60 20v20h-80 q0 -60 -40 -60zM740 976l40 -40h20v40h-60zM800 236l60 -60v40l-40 40h-20v-20zM840 556q20 -60 120 -60v60l-120 20v-20z" />
<glyph unicode="E" horiz-adv-x="1154" d="M0 1515v32l16 16l176 -16l80 16h16l16 -16l96 16h32q32 0 32 -48l64 48h16l16 -16v16l160 -16h80l16 -16q0 25 160 32l48 -16v16l96 -16h16l16 16l14 -7v-41l-62 -16h-16l-16 16l-16 -16l-48 32l-16 -48q-32 0 -32 48l-128 -32h-32l-16 16v-16l-16 -16q-151 0 -208 48 l-64 -48h-16l-48 32h-48l-32 -32l-192 32l-16 -16h-64zM16 -244h96q32 0 32 -48h16q0 48 32 48h64l16 -16v16l64 -16l64 16l32 -32l32 32l48 -16h16l16 16l80 -16l80 16l16 -16l96 16h16l32 -32v-16l-32 -32h-64l-16 16l-16 -16l-96 16l-48 -16l-32 32l-128 -32l-144 32 l-32 -32h-32l-64 16l-64 -16h-32l-48 48v32zM100 156l20 60l-20 60l40 300l-40 40v60q0 50 80 60v40q-80 0 -80 40v20l80 160q-80 0 -80 80q52 160 80 160h80q34 0 60 -100l80 -20l-40 -180l20 -20v-20l-20 -80q0 -60 60 -60l20 -20v-20l100 20h60l20 -180q-84 -80 -160 -80 v20l-120 -40l-120 20v100l-20 100h-40v-80l40 -60l-40 -60q220 -66 220 -120l-20 -60l20 -20v-20l-20 -60l40 -40l-80 -140h-20l-60 40l-40 -40q-68 0 -100 140zM160 876l20 -60h20l20 60l-20 20h-20zM180 336l60 60l-60 40v-100zM200 236h60l60 60v20q-120 -27 -120 -80z M260 616l120 -80l20 100v40q-50 0 -140 80v-40l20 -20v-20zM300 976h40v60h-40v-60zM440 616h60v40l-60 -20v-20zM540 76l40 60l-20 20v60l80 80l60 -40l20 20v-20l140 60q80 -30 80 -60l20 20h20q56 0 80 -160l-60 -20l20 -20v-20q0 -40 -180 -60l-80 40l-100 -20 q-104 0 -120 60zM560 1156l60 40h100q10 80 60 80l20 -100q60 0 60 60l20 20h20l20 -60l60 40q41 -9 80 -100q-24 -180 -80 -180q-120 0 -120 80l-20 -20h-20v40h-20v-40l20 -20l-140 -40q-100 0 -120 200zM960 -276l64 32h80l16 -16l16 16h16l18 -2v-76l-2 -2h-32l-64 16 l-64 -16h-16l-32 32v16z" />
<glyph unicode="F" horiz-adv-x="1149" d="M-1 1529v16l32 32l16 -16v-16l16 16h48l16 -16l16 16h64l16 -48l-16 -16h-32l-64 16l-64 -16h-16zM15 -244h32v-32h32q0 48 32 48l64 -16l16 16l96 -16l336 16l64 -48l-32 -32h-32l-64 48h-48l16 -16v-16l-16 -16h-32q-80 4 -80 32l-16 -16h-160l-80 -16l-32 32l-32 -32 h-64v64zM100 96v20l60 80l-40 60v40h40v20l-40 100l20 20h20l20 -20h20v40q-60 0 -60 40v20h100q-40 80 -120 80v100q0 67 60 140v20l-20 20v20q46 0 60 100l-20 20l40 40l-20 20h-20l-20 -60l-80 60q87 157 140 180h20l140 -80v-40l-40 -60l40 -120h-20l20 -20v-120 l-20 -20v-20q240 0 240 -200l-100 -100h-20l-60 40h-40l-20 -80l20 -60l-20 -20l20 -20h20l-40 -180l20 -20h20l-20 -20v-20l20 -60l-20 -20h-80l-100 80h-20l40 -60l-40 -40zM180 196h40v-20l100 20v40h-100zM200 656q80 0 80 -100h20l20 60l-20 60l60 100l-20 60h-40 q-16 -160 -100 -160v-20zM255 1529q10 48 128 48v-16l16 16h64l32 -32l-16 -16h16l64 48h32v-16l160 16l128 -16l96 16v-32l-32 -32h-16l-48 16l-32 -32h-32l-48 32l-64 -16l-16 16h-16l-64 -16l-48 32l-48 -48h-176l-16 16l-16 -16h-16zM260 376h80v40l-80 -20v-20z M300 916l40 -40l20 20v20l-20 20h-40v-20zM460 536h80l20 100h-40zM560 1116q48 120 120 120l120 -40l40 40l20 -20l100 20h40q34 0 60 -100q-24 -180 -80 -180h-40l-20 20l-20 -20h-120l-20 20l-20 -20h-100l-60 60v20l20 20v20zM620 1036h60v40l-40 40l-20 -20v-60z M735 -260l48 32h16l48 -32l16 16v16l128 -32l32 32h64l64 -16l11 4v-63l-59 -5l-96 16l-80 -16l-16 16h-16l-64 -16l-16 16v16l-16 -16h-32zM991 1513l48 48l32 -32zM1071 1513q0 31 91 62v-71l-27 -7z" />
<glyph unicode="G" horiz-adv-x="1179" d="M-8 1532v16l32 32h80l64 -48l32 32h32v-32q0 -32 -48 -32zM8 -261l32 32l32 -32h16l48 32l16 -16l16 16h16l48 -16l48 16l32 -32l48 32l32 -32l16 16h16l48 -32h16l48 32l32 -32v-16l-80 -16l-16 16l-80 -16h-160l-64 16l-64 -16h-64l-32 32v16zM100 184q86 71 86 127 h-21l-22 -22h-21v22l21 126l-43 148q0 232 172 232v42l-43 42l-64 -63l-65 232l65 21l-22 21v43q0 38 194 105h107q0 -42 86 -42l22 -21v-42q-43 -49 -43 -148h-43l-86 126h-43v-42l107 -147l-64 -64l21 -21v-42l-43 -42l43 -148l-43 -42l86 -42l-43 -106l22 -21v-127 l-22 -21v-21q151 0 151 -42q-43 -211 -108 -211h-43l-21 21l-22 -21h-43q-208 149 -215 190zM200 416l60 -20l-20 -60l20 -20h20q60 20 60 120l-40 40l-100 -20v-40zM280 1532v32h32l16 -16l160 32l128 -48q0 48 32 48h96l32 -32l64 32l48 -16l80 16l16 -16l80 16h48l32 -32 l16 16h27v-61l-43 29l-32 -32h-96q-32 0 -32 48h-48q0 -48 -48 -48l-48 32l-96 -32l-32 32l-48 -32h-16l-16 16l-48 -16l-16 16h-16l-48 -16v16l-16 -16h-32l-16 16l-16 -16h-112zM300 136h40l20 80l-60 -20v-60zM300 856h20l40 40l-60 20v-60zM616 -261l32 32q54 0 112 -48 q0 32 48 32l48 -16v32l64 -16l267 15v-68l-11 -11h-80l-16 16l-16 -16h-16l-48 32l-80 -32l-128 16l-144 -16zM639 582q0 126 80 164h40q161 0 161 -94h60q0 43 15 43q9 0 25 -18q60 -24 60 -141v-24l-60 -70l20 -117l-20 -24l20 -23v-24l-60 -94l20 -23v-24l-140 -117h-100 l-80 94v117h60v24h-40v70q14 32 55 32q20 0 46 -8q3 30 3 53q0 59 -22 76q-20 -4 -48 -4t-65 4zM640 1157l160 99q180 -45 180 -116q0 -99 80 -99v-49l-20 -17v-16l40 -33v-17l-40 -33h-40l-100 83v-33l20 -17v-16l-20 -17h-60q0 35 -180 198zM719 535h40v94h-20zM760 113 h40l20 71h-60v-71z" />
<glyph unicode="H" horiz-adv-x="1187" d="M-11 1529q0 32 176 48v-16l16 -16v-16l-32 -32h-64l-16 16l-16 -16h-32zM5 -220h128v-32l-96 -48l-32 32v48zM96 1039l20 20h20l-40 120q60 14 80 80h40q160 -12 160 -60l-20 -60l40 -40v-20q0 -40 -60 -40l80 -100l-20 -80h-20l-60 40l-20 -60q60 0 60 -60h120 q47 0 60 -140l-80 -140h-60l20 -100h-20l20 -20v-60l-60 -140l40 -40v-80q0 -60 -80 -60q-200 46 -200 200v60l40 60v20l-40 40l40 100l-20 20v60l20 20v20l-40 40l20 120l-20 20v20l20 60l-20 20v20l20 20v20zM176 359l100 -40l20 20v20l-20 20h-100v-20zM176 719l60 -20 v40h-60v-20zM181 -236l112 16l96 -16v-48l-16 -16l-192 32v32zM196 799l60 60l-20 20h-40v-80zM196 1059l60 -80h20l20 120l-20 -20h-20l-20 20zM216 539q40 -46 40 -140h20l40 100q-40 0 -40 80h-20zM229 1513v16l48 48l32 -32h16l16 16h32v-32q28 32 224 48l32 -48v-16 l-16 -16l-48 16l-112 -16zM336 619q116 0 160 100h-20l-140 -60v-40zM405 -252l32 32h16l144 -16l48 16v-16l16 -16h16l16 16h144v-48l-16 -16l-16 16l-64 -16l-80 32l-48 -32l-144 32h-16l-16 -16zM656 559v40q0 180 180 180q0 -30 80 -60v20l20 -20h20l40 40v20l-20 -20 h-40q-33 0 -60 140h-20v-100h-20l-40 40v260q0 40 60 40l-40 60l40 60l20 -20h20l20 20h20q120 -26 120 -60v-40l-40 -60l60 -40l-20 -100v-60l20 -80l-20 -80l20 -80l-20 -60l40 -40v-40q-46 0 -80 -80l60 -100l-40 -80l40 -40v-60l-20 -20l20 -20v-60q0 -40 -120 -60 q0 39 -120 80q0 80 -60 80l20 140v80l-20 100h40q40 0 40 -120q60 0 60 80l60 20v120h-20q-40 0 -40 -80h-40l-100 20v-40h-20q-91 39 -100 80zM677 1529v32h48l16 -16l16 16h32v-16l-48 -48h-32zM805 1529q0 36 176 48l32 -48v-16l-16 -16l-80 16l-48 -16zM856 259l100 -20 l20 80h-20l-100 -20v-40zM933 -236l112 16q115 -7 155 -25v-39l-219 -16l-48 16v48zM936 959h60v40l-20 20v20l20 20h-60l20 -20v-20l-20 -20l20 -20zM956 839h40v20l-40 40v-60zM1045 1529v32l128 16l27 -16v-58z" />
<glyph unicode="I" horiz-adv-x="498" d="M-12 -261l192 32q48 0 48 -32v-32h-32l-32 32l-64 -48h-80l-32 32v16zM4 1532v16l32 32h64l64 -16l64 16h160l80 -16l16 16l18 -4v-40l-18 12h-16l-48 -32h-16l-16 16l-32 -32l-48 32l-32 -32l-48 16l-48 -16h-16l-16 16l-16 -16l-48 32h-16l-32 -32zM96 699v20l40 60v20 l-20 20v20l20 20h-20l60 80l20 -20h20l20 20l20 -20v40h-40v40l100 120v40l-160 -60l20 -20v-20l-60 -80l-20 100l40 40l-20 20v40l100 80l20 -20l20 20h60q100 -51 100 -160v-40q0 -60 -120 -60v-20h80v-20l-20 -20v-20q40 0 60 -120l-20 -60l20 -60l-20 -20h-20l40 -140 l-40 -80l20 -20h20l-20 -140v-100l20 -140l-20 -20h-20l-20 20h-20l-120 -20h-20q-52 0 -80 160q40 0 40 100h60v20l-20 20v20l-20 -20h-20l-20 20h-20l20 100l-20 80q0 180 140 180v60zM196 579h60l20 100l-80 -40v-60zM276 -261l32 32h112l16 -16l16 16h32l16 -16v16h2 v-73l-18 -7l-160 32l-16 -16h-32v32zM276 499h60l-20 20v20l20 20h-40z" />
<glyph unicode="J" horiz-adv-x="1149" d="M-16 1528q0 32 128 48v-48h32q0 48 32 48l32 -32v-16l-32 -32l-64 16l-64 -16h-32zM0 -280l32 64l96 -48h16l48 32h64v-32l-32 -32l-96 16l-80 -16h-32zM87 319v40l80 120h60l20 -20l100 40q44 -248 160 -340q0 -80 -160 -160h-20q-40 0 -40 60l-20 -20h-20l-100 120v40 l40 60v20q-100 0 -100 40zM207 319h20l60 20l40 -40h20v40l-20 20v20l-120 -20v-40zM224 1512l16 16l-16 16l32 32h32l16 -16l16 16h96l32 -32h16l16 16h64l160 16l16 -16l-48 -64h-208l-48 32h-64l-48 -32h-64zM247 199h60v60zM304 -232l16 16l112 -16l80 16v-16l16 -16 l128 32h16l48 -48v-32h-208l-112 16l-16 -16l-32 32h-16l-16 -16h-16v48zM647 199l160 220h20v-40h40l40 40v20l-140 20l20 100l-40 80l20 20v20l-20 20v20l20 120l-20 20v20l40 40l-40 40l60 60q0 60 -60 60l-20 20v20q59 140 180 140q120 -41 120 -80v-20l-20 -20l20 -20 v-20q0 -140 -80 -140v-40q76 0 100 -140l-40 -60l20 -20v-140l-20 -20l20 -20v-20l-20 -60l40 -40l-40 -40l-80 80v-100l100 -20l-40 -160h-20l-20 20h-20l20 -20v-40l-60 -100l-20 20h-80l-20 -20h-20q-100 103 -100 180zM707 99l60 20l-40 40h-20v-60zM752 -280 q0 45 128 64l64 -32l48 32l32 -32v-32l-80 -16h-16l-32 32l-48 -32h-80zM752 1528v16l80 32l32 -32l-48 -48h-32zM787 719l120 -20q0 60 60 60v80h-20l-60 -40l-40 40q0 -54 -60 -120zM807 519h60l20 20v40l-40 40h-40l40 -80h-40v-20zM880 1528v16l16 16l64 -16l160 16 q48 0 48 -32l-32 -32l-64 16l-64 -16h-96zM1040 -280q13 48 96 48l16 -48v-16h-96z" />
<glyph unicode="K" horiz-adv-x="1208" d="M-6 -249l127 16v-16l-48 -48h-32zM-3 1532q0 32 96 48h16v-64h-96zM96 179v20l40 60l-20 100h20l-20 20v100l60 180l-20 20v20l20 120l-80 80l60 120v80l-40 60v20l60 60h40l80 -60l60 60l60 -60q0 -60 -80 -60l80 -180l-40 -120l40 -40l-20 -20v-20l40 -100l-20 -20h-20 l-60 20v-20l80 -140l-20 -80l-100 20v-20l100 -100l-20 -20h-20l-60 40h-20l-40 -80v-20h20l60 40h40l40 -40l-20 -60l20 -60q-40 0 -40 -60l-20 -20h-80q-104 0 -120 60v20l20 20q0 60 -60 60zM141 1516l48 64h48q-11 -80 -48 -80h-32zM169 -265l32 32l48 -32q0 48 32 48 h32l144 -16h16l16 16h16l16 -16l96 16h16l16 -16l96 16h48l32 -32l80 16h64v-16l-16 -16l-16 16l-80 -48h-80l-48 32h-16l-48 -32h-16l-32 32l-240 -32v16l-16 16l-48 -32h-144v32zM176 599l60 -60l20 20v60zM196 399l80 -60v20l-20 60h-60v-20zM196 839h60l-40 40h-20v-40z M216 999h80l-40 40h-40v-40zM269 1548v32h32l48 -32l144 32q48 0 48 -32l80 16h80l16 -16q0 32 160 32h16l32 -32l224 32l67 -15v-49h-3l-48 32v-32h-128l-16 16l-112 -32v16l-16 16l-80 -32l-64 16h-16l-16 -16l-176 16l-80 -16l-16 16l-64 -16q-58 48 -112 48zM296 699 l20 -20h20v60zM496 479q0 75 180 100v-20l20 20h60l60 -60l-80 -60l40 -40h20l60 40q12 -80 160 -80l20 -20v-20l-20 -20v-20q0 -60 80 -60l20 -20v-20q0 -82 -60 -160l-160 -20l-320 300q0 49 -60 100zM516 899l160 200l20 20q68 0 120 120h140q100 -51 100 -160v-20 q0 -40 -80 -40l20 -20v-20l-140 -100l-60 20l20 -20v-80l-120 -60l-60 40l-60 -20zM656 899l40 -40v20l-40 40v-20zM696 959l20 -20h20l20 20v100h-40zM736 299h80l-40 80h-40v-80zM796 219l20 -60h20l20 80h-20l-20 -20h-20zM876 139h20l40 40l-20 20h-20l-20 -20v-40z M1001 -249l32 32h32l32 -32h16l16 16h32l16 -16l32 32l12 -2v-69l-12 -9h-64l-48 32l-48 -32z" />
<glyph unicode="L" horiz-adv-x="1137" d="M-5 -260l32 32l80 -16l64 16l64 -16q0 -31 -96 -64l-96 16h-48v32zM-4 1529v32l207 16l96 -16l80 16l16 -16h16l64 16l16 -16v-16l16 16h32l32 -32l-48 -32h-16l-48 32l-16 -16v-16l-128 32l-32 -32h-64l-64 16l-48 -16l-16 48h-16q0 -48 -32 -48h-16zM96 79v60l40 60v20 l-40 60l20 100l-20 100l20 20h20l20 -20v60q-60 0 -60 60l40 60l-20 20v40h20l20 -20h20v80l-20 -20h-20l-40 180l20 20h60l-20 -20v-20h40v-20l60 20v60l-60 -20q-100 40 -100 120q0 180 200 180q9 -41 100 -80l-20 -60l20 -180l-20 -20h-20l20 -20v-180l-20 -120l20 -100 l-20 -20l20 -100v-80l-20 -80l40 -120q0 -75 -180 -100q-120 41 -120 80zM176 439l40 -40h20l-40 40h-20zM235 -260l80 16l-48 -48zM236 79h80l-20 60h-40zM236 439h100v20h-100v-20zM236 819l100 20l-40 40h-60v-60zM236 999h60v120h-40l20 -20v-20l-40 -40v-40zM276 699 h60v80h-40zM331 -276l32 32h16l48 -16l32 32h32l48 -32l64 16l16 -16h16l64 16l48 -32l48 48h176l16 -16l16 16h16l32 -32q-10 -48 -128 -48v16l-16 -16h-64l-32 32l16 16h-16l-64 -48h-32v16l-160 -16l-128 16l-96 -16v32zM536 99v120l60 60l20 -20h20l40 40h20 q40 0 40 -80h20l160 100q120 0 120 -140l-20 -20v-20l20 -80l-40 -40q-206 14 -260 80h-20q0 -80 -40 -80h-40zM619 1545l32 32h32l64 -48h48l-16 16v16l16 16h32q80 -4 80 -32l16 16h160l62 12v-63l-14 3l-16 -16l-96 16l-336 -16zM1083 -244l16 16h32l14 -3v-61h-46z" />
<glyph unicode="M" horiz-adv-x="1187" d="M-11 -255l16 16h16l16 -16v-16l-16 -16h-16l-16 16v16zM5 1531l16 16h48v-32h16q63 48 224 48l80 -32v-32l-64 -16q-320 0 -320 48zM69 -239l16 16h48q176 0 176 -48l-32 -32h-32l-64 16l-48 -16q0 32 -48 32l-16 16v16zM100 159q44 0 60 180q-60 0 -60 40v20l100 100 q60 0 60 -100l60 60h-60v20l40 40q120 0 120 -240v-80l-40 -60v-20l40 -60l-160 -40h-40q-36 0 -120 140zM140 1059v20q0 100 180 180q100 0 220 -280q60 0 60 -40l-40 -120l20 20h40l20 -20h20q-25 -200 -80 -200l-60 20l-20 -20v-20q-120 47 -120 140l80 40v20h-40v20 l-20 -20h-40l-60 60l60 40l-20 60h-40q0 -60 -40 -60zM220 299h20l40 40h-60v-40zM280 239h20l60 60h-60zM341 -239h80l64 -16l176 32l16 -16v-32l-64 -32h-80l-48 32l-32 -32h-80l-32 32v32zM437 1547l16 16h16l32 -32l-32 -32h-16zM565 1515v16h16l48 -16v16l16 16v16 l96 -16l192 16l48 -16l16 16h16l16 -16h16l80 16l16 -16v-16l50 10v-50l-50 -8l-96 16l-64 -16l-16 48h-32q0 -48 -112 -48l-16 16h-16l-64 -16l-16 48h-16q0 -48 -32 -48h-64zM693 -239h32l48 -32l16 48l16 -16h16l144 16l48 -48h16v-32h-32l-32 32l-48 -16l-48 16l-32 -32 h-144v16l16 16v16zM740 899v60q0 40 80 40v20q-60 0 -60 40t60 40v120l40 40h40l20 -20l60 20q100 0 100 -320l-40 -80l40 -40l-20 -220l20 -120q-79 0 -120 -160l100 40l20 -20l-20 -20v-80h40v-40q-74 -200 -220 -200l-40 40q33 0 80 120h-60q0 -60 -40 -60l-40 40l40 240 v60l-40 120l20 60l-20 120q120 0 120 40l-20 20h-20l-20 -20h-20q0 46 -80 120zM840 559h20l20 60h-40v-60zM840 839h60v140h-60v-20l40 -60l-40 -40v-20zM880 639h20l60 60l-60 20l-20 -20v-60zM940 579l20 -100l80 140l-60 40l-40 -60v-20zM940 1099l40 -60l-20 -60h40v40 h20q-41 120 -80 120v-40zM1125 -255q0 32 48 32l18 -6v-64l-50 -10l-16 16v32z" />
<glyph unicode="N" horiz-adv-x="1179" d="M-12 -293l32 64l288 -16l64 16v-32l48 16q48 0 48 -32q58 48 112 48l32 -32l-32 -48l-144 16l-128 -16l-80 32l-48 -32h-16l-16 16l-16 -16h-80l-16 16l-16 -16h-16zM-12 1516l16 48h64l16 -16l32 32h48l80 -16l16 16l80 -16l48 16l64 -32l32 32h96q32 0 32 -48l128 48 l160 -32l16 16h32v-32l-32 -32h-112l-16 16l-16 -16h-32l-16 16v-16l-48 16h-16l-16 -16l-48 16l-16 -16h-16l-48 32l-32 -32l-96 32l-48 -32q-48 0 -48 48h-48q0 -48 -32 -48h-96l-32 32l-48 -32h-32zM96 79v60l60 160q-40 0 -60 140l60 60l20 -20h20l60 20l160 -80v-20 q-40 -52 -40 -180h-20l40 -80q-20 -120 -60 -120l-40 40l-120 -40q0 40 -60 40zM116 1179l80 80q40 0 40 -80h40v60h40q157 -171 300 -420v-20h-40v-40l20 -20v-20h-80q20 -120 60 -120h20l-20 100l120 40q180 -227 180 -300l-20 -20l100 -80v-60l-20 -20l20 -60l60 40h20 v-140q0 -34 -160 -100l-120 160l20 260h-120v-20h40v-40q-100 0 -300 280l-40 40l20 60h-20l-40 40l20 20v20q-220 181 -220 360zM256 999l20 20q60 0 60 -120l120 60v20l-120 80h-20l-60 -20v-40zM396 839h40v-20l100 40v20h-40l-100 -20v-20zM660 -277l32 32l48 -32h16 l48 32h16l16 -16l32 32l48 -32l32 32l48 -16l48 16h16l16 -16l16 16l48 -32h16l31 31v-79h-63l-64 16l-64 -16h-160l-80 16l-16 -16l-80 16v16zM716 499h20l20 60h-40v-60zM776 959v20l20 20l-20 20v60q0 123 22 159l158 21q105 0 120 -200v-80l-20 -20l20 -20v-80l-60 -60 l-100 100h-40q0 -60 80 -60v-60q-112 0 -180 180zM836 939h20l40 100h-60v-100zM916 1079h60v60h-60v-60zM956 999h20l60 20l-40 40l-40 -40v-20zM976 279v20l20 20h20l20 -20v-20l-20 -20h-20zM996 1532v32h32l32 -32l64 48h63v-56l-143 -24q-48 0 -48 32z" />
<glyph unicode="O" horiz-adv-x="1175" d="M-7 -236l48 16l112 -48q0 36 176 48l112 -16v-48l-48 -16l-224 16l-112 -16q0 32 -64 32v32zM-6 1529v16l31 32l32 -32l48 32l16 -48l80 48l128 -16v-32l-192 -32v16l-16 -16h-96zM100 340q40 0 60 120l-20 20h-20l20 100v260l40 60l-60 60q58 220 140 220l40 60 q100 -26 100 -100h40q0 60 40 60l60 -60v-80q-140 -151 -140 -240l-40 -40l20 -20v-40l-20 20h-20v-60h60v-20q0 -40 -60 -40l80 -100l-20 -20v-120q75 -180 140 -180q0 -200 -220 -200v20q0 50 80 60v40l-100 140l-20 -20v-20l60 -80v-20q0 -40 -60 -40l-160 160l20 60z M180 500l40 -40l20 20v80zM180 620h20l40 40h-60v-40zM220 820h20l40 40v40h-40l-20 -60v-20zM240 1040l20 -60h40q0 60 60 60v40h-20zM260 780h60v60zM361 1513v16l32 48q176 -12 176 -48l-64 -32l-48 16l-80 -16zM537 -236h144l16 -16h16l16 16v16l48 -16l144 16h16 l32 -32l-32 -32l-16 16h-16l-144 -32l-48 32l-80 -32l-64 16l-16 -16l-16 16v48zM585 1545v16h32l16 -16l16 16h48v-32l-32 -32h-32zM680 40q14 140 40 140l-20 20v20l40 40l40 -40l20 20v20l-20 20v20l40 160l-20 180v60q0 100 80 100v60h-20l-60 -20l-120 320 q91 78 180 80l20 -60l20 20q120 -47 120 -80l-20 -20v-20q60 0 80 -360l-20 -20h-20l40 -120l-20 -20v-20l20 -60q-46 0 -60 -100l40 -40v-180q0 -40 -100 -40q0 -59 -80 -100h-40l-80 20l-60 -20zM745 1513v16l32 48q197 -16 224 -48v32h32l16 -16h16l32 32l48 -48v-16 l-224 -16l-112 16l-48 -16zM760 1060q40 0 40 -60h40v20l-40 80zM840 200l20 -60h40v60l-60 20v-20zM840 300l20 -20h40v20l-20 20v20l60 80h-100l20 -60zM920 940l20 -80h40l40 40l-60 60v20zM940 260l40 40v20l-40 -40v-20zM985 -236l96 16l112 -16v-32l-192 -32l-16 16 v48z" />
<glyph unicode="P" horiz-adv-x="1187" d="M-11 1513v32q64 0 64 32l112 -16l224 16l48 -16v-48l-112 -16q-176 12 -176 48l-112 -48zM-10 -252l31 32h96l16 -16v16l192 -32v-32l-128 -16l-80 48l-16 -48l-48 32l-32 -32l-31 32v16zM96 220l40 60l-20 20v100l40 60v40l-40 40l20 140v20l-20 80l20 60l-20 100l20 20 l20 -20h40v60l-20 -20h-20l-20 20h-20l20 20v40l-40 40q40 115 140 160q160 -15 160 -160v-20l-20 -120l40 -220l-40 -40l20 -80q-120 0 -120 -40l20 -20l20 20h20q40 0 40 -60l-20 -60l40 -40l-20 -20h-20l60 -160v-60l-40 -40l20 -20v-40l-60 -80l-60 20l-120 -20h-20v60 q0 33 120 80l60 -20l40 60v40q-80 0 -80 60h-60l40 -60v-20q-60 0 -60 -60l-20 -20h-20zM176 560l40 -40l20 20v20l-40 40h-20v-40zM236 1080l60 -60l20 20l20 -20v40zM256 420l60 -60l20 60h-80zM256 840h40l40 40v20h-20zM296 680l60 60l-40 40zM357 -236l16 16l80 -16 l48 16l64 -32q0 -35 -176 -48l-32 48v16zM533 1513v48l16 16l16 -16l64 16l80 -32l48 32l144 -32h16l16 16l32 -32l-32 -32h-16l-144 16l-48 -16v16l-16 16h-16l-16 -16h-144zM536 600v20q21 83 200 140l60 -80l-20 -20l20 -20l-20 -20l80 -20q0 50 80 60l-20 20v80l120 120 h20l40 -40l-100 -60l40 -80q-33 -111 -100 -160h-20l-20 20h-20q-39 -91 -80 -100l-60 40l-60 -40q-140 0 -140 140zM556 1000v60l20 20l-20 20v40l20 20l-20 20v40l100 20l20 -80q60 0 60 80q260 -96 260 -220q46 0 60 -100l-20 -20h-20l-80 20l20 -20v-60q-40 0 -40 -60 l-20 20h-20l-20 -80l-60 60v60q0 40 120 60v20l-120 20l80 60v40l-20 60l-60 -40l20 -60h-20l-80 20l-80 -20l-20 20l-40 -40zM581 -268l48 48h32l32 -32v-32h-48l-16 16l-16 -16h-32v16zM636 620l60 -20l20 60h-20l-60 -20v-20zM741 -236l16 16l48 -16l112 16l224 -16v-16 l-48 -48l-32 32h-16l-16 -16h-32v32q-27 -32 -224 -48l-32 48v16zM981 1513v48l16 16l192 -32v-32l-112 -16z" />
<glyph unicode="Q" horiz-adv-x="1191" d="M-7 -252l32 32h32l16 -16l16 16h64l32 -32v-16l-16 -16v-16q-176 16 -176 48zM9 1497v48l32 32l96 -48v-32h-128zM100 560v120l40 160l-40 60q123 320 240 320l100 20l60 -100l-140 -380q-60 -48 -60 -100h20l20 20h20l40 -60v-20h-40v-20l40 -60l-40 -40l20 -120 l-40 -40q129 0 160 -180q0 -110 -140 -160h-20q-76 80 -160 80l-20 20v20l120 20v20q-107 0 -140 60l-20 220l60 40h40l80 -20h40l-40 40l-80 -20v40l-20 -20h-20zM180 660h40l-20 60h-20v-60zM185 1513v32l192 32l16 -16v-48l-96 -16zM233 -236l224 16l112 -16l48 16 l16 -16v-16l-32 -48q-196 16 -224 48v-32h-32l-16 16h-16l-32 -32l-48 48v16zM260 580l20 -20v-20l60 20v20l-40 40h-40v-40zM280 1020l60 -20l20 20v20l-60 20l-20 -20v-20zM409 1529l32 32l16 -16h16l144 32l48 -32l80 32l64 -16l16 16l16 -16v-48h-144l-16 16h-16 l-16 -16v-16l-48 16l-144 -16h-16zM640 100h20l-20 20v40l120 80l40 60l-20 100l20 100h40q0 -60 40 -60v20q0 72 -100 180v60q33 80 120 80v40q-228 188 -240 260v20q40 0 40 100l20 20h20l20 -20l20 20h80l60 -60l20 20h20q47 0 100 -340l-60 -20v-40q0 -40 60 -40v-140 l-40 -40v20l-20 -20h-40l-20 20h-20v-20l40 -40l60 20l40 -60v-40q0 -40 -140 -40q63 -42 93 -42l-20 -20v-80l-29 -107l169 27l51 -76l-80 -40l20 -20v-40l-40 -40h-40q-50 0 -110 52l-154 -24v50l-20 -20h-20l12 -35l-96 44l4 11zM681 -252l32 32h32l48 -48v-16h-32 l-16 16l-16 -16h-48v32zM809 -252l64 32l48 -16l80 16l16 -16v-16l-32 -48q-176 13 -176 48zM860 1040l40 40v20h-40v-60zM880 160h60l-60 60v-60zM937 1513v48l48 16l224 -16l7 1v-32q-31 -24 -167 -33zM1049 -252l163 28v-54l-35 -22l-128 16v32z" />
<glyph unicode="R" horiz-adv-x="1150" d="M-10 -249l31 32h64l96 -16l80 16l32 -32l16 16h32l16 -16h16l32 32h32l32 -32l-48 -48l-48 32l-48 -32h-64l-64 48l-48 -48l-16 16l-80 -16h-63v48zM50 1564v16h32l64 -32v-16l-32 -32zM92 280l40 180l-20 20v20l20 20l-20 100l20 60l-20 20v20l20 80l-20 60q20 80 80 80 l-20 20v20l20 20l-20 20l-20 -20h-20l-40 40v100q0 33 140 80q140 0 140 -80l-20 -20v-20l20 -80v-20l-20 -20l40 -240q-20 -80 -80 -80v-40l20 20h20l60 -160l-100 -200h20l40 -40l-20 -100l20 -80l-240 -60l-20 20v60l40 60zM152 760l40 -40h40l-80 60v-20zM172 420 l20 -20h20l20 60h120v20l-120 120h-40l40 -60v-80q-60 0 -60 -40zM178 1548l144 32l224 -32l32 32h16q160 0 160 -32l16 16h80l80 -16q0 32 48 32l144 -32l36 24v-32q-33 -11 -68 -40l-64 16l-16 -16l-80 16l-176 -16l-16 16h-16l-64 -16l-80 32l-16 -16v-16l-112 32 l-16 -16h-128v32l-48 -32h-48zM192 240l40 -40h20v60h-60v-20zM252 940h20v100h-20v-100zM501 -233h64l80 -16l32 32h48l96 -16l16 16h16l96 -16l16 16h16l16 -16h16l144 16h5v-80h-5l-48 32l-16 -16v-16l-240 32l-32 -32h-16l-48 32h-16l-48 -32h-80l-80 48l-16 -16l-16 16 v16zM512 1040v20q0 108 80 140h100l20 -20l20 20h80l120 -140q93 0 120 -280q-35 -140 -80 -140h-20l-60 40v-20l20 -100q-66 -60 -120 -60v-20q120 -4 120 -120h-20q120 -137 120 -200h-20l20 -20v-40l-120 -100l-80 20l-20 -20q-12 140 -100 140v20l40 60v40l-60 -40 l-20 20v100l60 20l-40 60l-60 -20q-80 107 -80 180h40q40 0 40 -60l80 80l-20 20l20 20h-40l-60 -20l-40 60l140 80h20q40 0 40 -60h80l-80 120l40 80q-95 0 -140 80q-60 0 -60 40l-20 -20h-20zM692 1040l20 -60l20 20h20l20 -20l20 20v20zM752 560h80q-60 66 -60 120h-20 v-120zM872 820l40 -80l60 60v40l-20 -20h-40l-20 20h-20v-20z" />
<glyph unicode="S" horiz-adv-x="1104" d="M-11 1512v16q0 48 64 48l16 -16h16l48 16l48 -16l96 16h32l32 -32l-32 -32h-32l-16 16l-16 -16h-64l-16 16l-160 -32zM85 -248l32 32h96l96 -48l-32 -32h-32l-96 32l-48 -16l-16 16v16zM92 880l40 120l-20 60q188 160 260 160l100 -100l-40 -160l-20 20q-140 0 -180 -100 l100 -20l-20 20v20l20 20h80l100 -160l-20 -20h40q0 60 40 60q300 -151 300 -260l20 20h20q33 0 80 -140h20l-20 -100l20 -60q-32 -160 -80 -160l-20 20h-20q0 -80 -60 -80h-60l-20 20h-20l-20 -20l-80 120l100 160l-20 20v20l20 80q-30 80 -60 80l-20 -60l20 -20h-20 q-91 39 -100 80l-20 -20h-40q-262 240 -320 240zM112 300v40l100 80h80q45 0 80 -200h20v40l-20 20l20 20h20l20 -20v-20l-20 -20q80 -10 80 -60v-80l-80 -80h-40l-40 40l-60 -20q-47 7 -140 120v60l20 20v20zM309 -248l32 32l16 -16v-16l-16 -16h-32v16zM373 1528 q0 32 48 32l160 -16l64 16l16 -16v-16l-32 -32h-96l-64 16l-64 -16zM389 -280l16 48q83 0 96 -48l-16 -16h-96v16zM517 -248l32 32l48 -32l64 32q128 -19 128 -64l-16 -16h-80l-48 32l-32 -32h-16l-80 16v32zM552 620h60v60h-20l-40 -40v-20zM612 600l20 -60h60l-20 60h-60z M612 1060q24 160 80 160h40l20 -20h20l40 40l80 -100q100 0 100 -40v-80l-20 -20l20 -20v-40q-70 -120 -180 -120h-20q0 131 -140 200zM677 1544l32 32l80 -32v-16l-32 -32h-32zM712 600l140 -280h40l20 100v20h-20v-40h-20q-40 0 -100 200h-60zM821 -264l48 48h16l128 -32 l16 16v16l80 -16l12 2v-52l-92 -14h-208v32zM821 1560l16 16l160 -16h64l16 -16h16l28 28v-47l-44 -29h-208zM852 300l60 -80v40l-40 40h-20z" />
<glyph unicode="T" horiz-adv-x="1112" d="M0 -260l112 16h16l16 -16l16 16h80l64 -32v-16l-32 -32h-16l-64 16l-64 -16h-32l-32 32l-16 -16h-16l-32 32v16zM0 1531v16h16l16 -16h16l64 32l16 -16h16l96 16v-16l48 16q160 -7 160 -32l16 16h62l27 -62q-27 -2 -57 -2l-16 16v16l-16 -16h-32l-128 32q0 -48 -32 -48 l-16 48l-48 -32l-16 16l-16 -16h-16l-64 16l-64 -16zM100 1100q11 140 120 140l20 -80h20q0 60 40 60h40v-20l440 40l20 -20l20 20l40 -40l100 20l60 -80q-40 -200 -80 -200l-100 60l-40 -40q-40 0 -40 60l-80 -60h-60l-60 40h-20v-60l-280 40l-20 -20v-20q-95 0 -140 160z M400 160l60 200q-47 0 -60 140l40 40l-20 80h20l-20 20v20l20 20v20l-20 60l60 40h160q80 -32 80 -140v-40l-60 -60l60 -220q-20 -80 -80 -80v-20q60 -73 60 -140v-20l-40 -40h-20l-20 20l-20 -20h-120q-80 40 -80 120zM420 1060h20l80 20l60 -20l20 20v40q-80 0 -80 40 l-100 -20v-80zM480 280h80v40l-80 -20v-20zM520 480h20l40 40l-40 40zM637 -312l11 54l72 14l16 -16h16l48 16l32 -32l32 32l64 -16l64 16v-16l16 16h64q32 0 32 -48h16q0 38 19 46l-4 -69l-31 7l-64 -16h-32l-32 32l-144 -32l-128 32l-32 -32zM760 1040h20l40 40h-20z M913 1555l47 -8l16 16h16l80 -16l69 6l-5 -54h-16l-16 16l-174 -29z" />
<glyph unicode="U" horiz-adv-x="1179" d="M-2 1532l47 48h32l48 -48v-16zM1 -249l16 16h96v-64h-16q-96 16 -96 48zM100 320v20q60 0 60 60l-20 80l40 40l140 -60q-20 66 -80 80v40l-20 -20h-60v20l20 100l-40 40l20 180l-20 20v20l20 80v40l-40 80q39 91 80 100l40 -40l40 40q140 0 140 -220l-100 -60v-40 q100 -14 100 -60v-40l-60 -80l40 -40q0 -40 -60 -40l60 -60l-40 -300q104 0 180 -140v-40q-45 -100 -200 -100q-100 32 -100 140q-87 0 -120 80l20 20v20zM145 -233l16 16h32q37 0 48 -80h-48zM173 1548v32h144l48 -32l16 16v16l240 -32l32 32h16l48 -32h16l48 32h80l80 -48 l16 16l16 -16v-16h-64l-80 16l-32 -32h-48l-96 16l-16 -16h-16l-96 16l-16 -16h-16l-16 16h-16l-144 -16h-32q-32 0 -32 48l-48 -32zM200 280l60 -60l80 20v40l-140 20v-20zM200 1100h40l40 40v20h-60l-20 -20v-40zM240 1000l20 -20h20v60zM273 -265q54 0 112 48l64 -16 l16 16l80 -16l176 16l16 -16h16l64 16l80 -32l16 16v16l112 -32l16 16h128v-32l22 15v-38l-38 -9l-224 32l-32 -32h-16q-160 0 -160 32l-16 -16h-80l-80 16q0 -32 -48 -32l-144 32l-48 -32h-32v32zM340 180l40 -40l80 20v20l-100 20h-20v-20zM640 120v20l40 40l-20 20v60 q120 0 120 160h20l-40 220l20 20h20l-20 60l40 220l-20 60l40 100l-60 60q27 80 180 80h20l60 -60l-20 -60l40 -200l-40 -40v-20l40 -60v-60l-40 -40h-20l-20 20h-20v-20l40 -60l20 20h20l40 -40l-80 -200h20l60 -180q-56 0 -100 -140l-100 -60l-60 40h-40v-60h-60zM820 280 h60v40h-60v-40zM820 580l40 -120h20l40 140l-20 20l-80 -20v-20zM840 900h40l60 40l-20 60h-20zM860 160h60l40 40v20h-60l-40 -40v-20zM860 440l60 -80h20v40l-40 40h-40zM1005 1532l48 48l48 -32l48 32h42v-58l-10 10l-16 -16h-32l-16 16h-16l-32 -32h-32z" />
<glyph unicode="V" horiz-adv-x="870" d="M-16 -247l28 3h16l16 -16l16 16h80l64 -32v-16l-32 -32h-16l-64 16l-64 -16h-32zM-14 1512l1 38l25 13l16 -16h16l96 16v-16l48 16q160 -7 160 -32l16 16h80l160 16v-16l16 16h16l64 -48q0 48 32 48h32l96 -16l16 16h16l2 -66l-82 -14l-32 32h-48l-48 -32h-16l-64 48 q-57 -48 -208 -48l-16 16v16l-16 -16h-32l-128 32q0 -48 -32 -48l-16 48l-48 -32l-16 16l-16 -16h-16l-64 16zM0 1145v20l120 80h120l60 -60q0 -40 -60 -40l-60 20l40 -40l-40 -100h20l80 60q64 0 100 -220l-20 -20h-80l-20 80h-60l20 -120l100 20l80 -100v-20l-20 -20v-20 q32 0 100 -140l-40 -60v-40l120 40h20q44 0 60 -180l-140 -240l-120 -20q-100 23 -100 160l40 40v40l-20 -20h-40l120 140v40l-100 -80h-20q-60 20 -60 120l20 20q-60 0 -60 40l20 20h20l40 -40v60q-98 0 -120 240l-80 160l20 80l-40 40l100 20v60l-100 -40zM300 -276l32 32 h16l96 -16l16 16l80 -16l80 16l16 -16h16l48 16l32 -32l32 32l64 -16l61 16l5 -65l-18 17l-144 -32l-128 32l-32 -32l-48 16l-96 -16l-16 16l-16 -16h-64l-32 32v16zM360 145l40 -80h20v60l-20 20h-40zM380 245l80 -20l20 20v20l20 -20h60q0 40 -120 80l-60 -20v-60z M500 365l60 -20v40h-60v-20zM500 845v20l60 80l-20 60q0 151 120 220l100 -20v20q91 -39 100 -80v-120h-80v-20l40 -60l-60 -100l40 -40l-60 -60h-20l-20 20h-20q0 -60 -40 -60h-60l-40 40l20 20v20zM660 885l20 -60h60l-20 120l-60 -20l20 -20v-20h-20z" />
<glyph unicode="W" horiz-adv-x="1300" d="M0 -260l1 27q79 10 232 10l64 -16v-32l-80 -32q-152 0 -217 43zM7 1483l1 49q33 4 33 31l48 -16l64 16h32l32 -32q0 -48 -176 -48h-34zM8 1045v20l60 20v20q-60 0 -60 40l100 100h20l20 -20l20 20h40l100 -120v-20l-20 -20l140 -420l-60 -100v-20q0 -32 140 -100l-20 -20 v-40h100v-40q-80 0 -80 -60l100 -120q-112 -140 -240 -140q-49 0 -120 220l20 60l-20 20h20l60 -40l-20 -20v-20l80 -80v40l-20 20v20l80 20l-20 80l-80 -60h-20q0 94 -160 180l20 20v20l-20 100l40 40l-80 80l60 20q-120 100 -120 180h20l20 -20h20v60l-60 20l40 80h-20 l-60 -40zM148 885q100 -14 100 -100h20v100h-40v40h60v20l-40 40h-60l-40 -80v-20zM249 1499v32l32 32h80l32 -32l48 32h80l64 -32v-32l-16 -16l-176 32l-64 -16h-80zM345 -287l16 48h16l32 -32l-32 -32h-16zM473 -255l32 32h64q32 0 32 -48h16l16 48l64 -16h16l16 16 q112 0 112 -48h32l16 48l64 -16l96 16l96 -16h16l16 16l48 -16l79 16v-80h-15l-16 16l-48 -16l-32 32h-16l-16 -16h-32l-80 16v-16l-16 -16l-80 16h-16l-16 -16h-16l-16 16l-48 -16l-192 16l-96 -16v16l-16 16v16l-48 -16h-16v16zM568 765l20 20h20l-40 100l20 20h100 l20 -20l20 20h20q28 0 120 -200v-20h-40v-20l20 -60l-40 -40l180 -160l40 40h20l40 -40l-20 -20v-20l20 -80q-40 0 -40 -60l20 -60l-60 -20l20 -20v-20q0 -51 -180 -100q0 30 -80 60q-12 116 -60 180l20 20v20q-48 0 -60 180h20l-40 120l40 40h-20l-60 -20l-20 20v20h20z M601 1499l16 16v16l-16 16v16h144l32 -32l48 16l48 -16l32 32h32v-32h-16l-48 -48l-144 16h-16l-16 -16l-16 48l-48 -32h-32zM768 285l20 -60h40l-20 80l-20 -20h-20zM848 85h100v20l-80 20l-20 -20v-20zM868 325h60l20 60l-60 40l-20 -20v-80zM988 985v20l40 40l40 -40 l-20 -20h60v20l-100 120l100 100h20l60 -40l40 40l60 -60v-20q0 -200 -40 -200l20 -20v-40q0 -40 -120 -60l-60 20l-60 -20zM1033 1515v32l16 16l80 -16v-48l-48 -16q-48 0 -48 32zM1225 1531l32 32h47v-59l-47 -5z" />
<glyph unicode="X" horiz-adv-x="980" d="M-19 1487l10 75l1 1h32l64 -16l64 16h16l32 -32v-16l-64 -32h-80l-16 16l-16 -16h-16zM-18 -273l10 -3l64 16h16l16 -16l16 16l48 -32l16 48q32 0 32 -48l128 32h32l16 -16v16l16 16q151 0 208 -48l64 48h16l48 -32h48l32 32l192 -32l16 16h36l1 -55l-85 7l-80 -16h-16 l-16 16l-96 -16h-32q-32 0 -32 48l-64 -48h-16l-16 16v-16l-160 16h-80l-16 16q0 -25 -160 -32l-48 16v-16l-96 16h-16l-16 -16l-19 10zM-4 165q0 50 80 60v120l100 -20v20l100 100h60l80 -80v-40q0 -105 -100 -200l-20 20h-20q0 -140 -80 -140q-100 26 -100 60l20 20v40 h-20v-40h-20zM56 1005v20l40 60v20h-40v60q33 80 140 80l120 -80l-40 -40q60 0 60 -80q60 0 60 -40v-20l-20 -20v-20q60 0 60 -40v-20h-40q-40 0 -40 80h-20l-20 -160l140 20l20 -60l-80 -120v-20l60 -20l20 20q0 -40 60 -40l60 20v60l-20 -20h-80l20 100v60l-40 60v20h20 l240 -380q80 0 80 -100q38 0 120 -160h20v-140l-60 -60h-20q-40 0 -40 60h-40q0 -80 -40 -80q0 97 -200 280q0 91 -140 180q0 60 -80 140v100l-100 -20q-12 92 -180 300zM116 965h60v80q-30 0 -60 -80zM136 125h20l60 60v20h-20q-30 0 -60 -80zM296 1515v16l32 32h64l16 -16 l16 16l96 -16l48 16l32 -32l128 32l144 -32l32 32h32l64 -16l11 3l1 -19h-12q0 -48 -32 -48h-64l-16 16v-16l-64 16l-64 -16l-32 32l-32 -32l-48 16h-16l-16 -16l-80 16l-80 -16l-16 16l-96 -16h-16zM316 305l40 -40h20v20l-40 40h-20v-20zM476 565q0 -120 140 -120v20 l20 20h20v20q-80 0 -80 60h-100zM556 985q33 80 120 80v20q-60 0 -60 40l80 20l-20 20v20l60 60q200 0 200 -240v-20q-46 0 -120 -160q-60 0 -60 -40h-100l-80 80l20 20h20l20 -20v20zM656 305h60v60zM656 385h20l60 60v20h-60zM776 1105l40 -40l-20 -20v-40h20l60 20 l-80 80h-20zM836 165h20l40 40v20z" />
<glyph unicode="Y" horiz-adv-x="999" d="M0 -272l15 44l48 -16l64 16h64l32 -32l128 32v-16l16 -16l48 32h16l48 -32l-32 -32h-32l-16 16v-16l-16 -16l-64 16h-16l-16 -16l-80 16l-96 -16l-111 9v27zM4 1165h20q80 -40 80 -120h20v60l-40 40v40l80 80l120 -100v-40l-100 20v-40h80l20 20l160 -180l-40 -40v-20 q55 0 220 -120h40q-14 -120 -40 -120q20 -160 60 -160l-40 -200l40 -140l-20 -20h-20l20 -20v-20q-20 -60 -120 -60h-20q-140 0 -140 160q12 116 60 180l-40 40l40 40l-40 60v20l20 20v20l-80 80l40 40h20l20 -20h20v120l-80 20l20 -20v-80l-40 -40h-20l-60 60v40l40 60v80 h-20q0 -80 -40 -80h-40q-120 68 -120 120l20 60q-100 23 -100 160zM4 1511v59l43 7q96 -32 96 -64l-64 -16l-64 16zM143 1529l32 32l48 -48zM164 905h60l20 120q-40 0 -40 -80h-40v-40zM239 1545v32l96 -16l128 16l160 -16v16h32l64 -48h16l-16 16l32 32h64l16 -16v16 q118 0 128 -48l-32 -32h-16l-16 16l-16 -16h-176l-48 48l-48 -32l-64 16h-16l-16 -16l-64 16l-48 -32h-32l-32 32l-48 -16h-16zM444 505q120 0 120 100h-40l-80 -40v-60zM484 685h20l40 40h-20zM527 -276l64 48l336 -16l76 13v-63l-12 2h-160l-16 16q0 -28 -80 -32h-32 l-16 16v16l16 16h-48l-64 -48h-32zM604 1005q40 0 40 60l20 20h40l20 -20h20l-20 100l40 40l20 -60h40q0 100 40 100h20q50 0 119 -177v-4l-19 -19h-20l-20 20h-20v-40q60 0 60 -40l-20 -20h-20q-80 20 -80 80h-20l-20 -60h60l-40 -120q-60 0 -60 -80q-63 0 -160 80l20 20 v20z" />
<glyph unicode="Z" horiz-adv-x="1196" d="M-12 1564l16 16h16l16 -16l16 16h80l16 -16l16 16h16l48 -32l80 32l128 -16l144 16l32 -48l-32 -32q-53 0 -112 48q0 -32 -48 -32l-48 16v-32l-64 16l-288 -16zM-11 -245l15 16h32l48 -32l32 32h96q32 0 32 -48h48q0 48 48 48l48 -32l96 32l32 -32l48 32h16l16 -16l48 16 l16 -16h16l48 16v-16l16 16h32l16 -16l16 16h112l32 -32v-32h-32l-16 16l-160 -32l-128 48q0 -48 -32 -48h-96l-32 32l-64 -32l-48 16l-80 -16l-16 16l-80 -16h-48l-32 32l-16 -16h-64zM96 125q85 280 240 280v20l-40 60l140 60l-20 20v40l40 40l20 -20l60 20v20 q-80 0 -80 60q260 239 260 280h60v40l-40 60q100 73 100 120h20l20 -20l80 40q80 -30 80 -60l-20 -60h20l40 -40q-68 -134 -160 -200l-80 40v-20l40 -60l-40 -60l20 -60q-104 0 -120 -140q-124 -104 -200 -280h-20l-20 20h-20q-56 -280 -200 -280l-40 -40q-140 84 -140 120z M96 1065l20 20v20l-20 80l60 80l20 20h40l160 -100h20q10 80 60 80h20q120 -12 120 -60v-20l-20 -20l20 -20v-40l-80 -120h-60l-80 20l-60 -20l-20 60l-80 -60l-20 20v20l-20 -20h-40q-40 0 -40 60zM276 285l140 -20v40q-60 0 -60 40l20 20v20h-20q-41 -9 -80 -100zM476 345 h40l20 60h-60v-60zM476 445h20l40 40v40l-60 -60v-20zM616 85v80q40 46 40 140h20q80 -20 80 -80h20q0 80 40 80l160 -20l60 20l80 -180q-74 -120 -160 -120l-100 60l-180 -40zM660 1548v16l80 16l16 -16l80 16h160l64 -16l64 16h64l32 -32v-16l-32 -32l-32 32h-16l-48 -32 l-16 16l-16 -16h-16l-48 16l-48 -16l-32 32l-48 -32l-32 32l-16 -16h-16l-48 32h-16l-48 -32zM816 1065q30 -80 60 -80h20l-40 80h-40zM996 -261q0 32 48 32l192 -32v-16l-32 -32h-80l-64 48l-32 -32h-32v32z" />
<glyph unicode="[" horiz-adv-x="401" d="M100 -280l13 27q-7 109 -7 292l16 92h32l32 -115q0 -155 -22 -247l64 -33h16l48 32h64v-32l-32 -32l-96 16l-80 -16h-32zM106 428v92q0 46 48 46v22l-48 23l16 92v23l-16 23q0 160 48 160v46l-48 22l16 92l-16 137l16 138v22l-16 23l16 69l-5 38h-1l-3 44q0 14 25 25 l-3 18l42 -12q16 3 35 5v-48h32q0 48 32 48l32 -32v-16l-32 -32l-64 16l-36 -9l10 -45l-32 -46v-23l16 -23v-45l-16 -115h16l16 -23l-16 -114v-23l16 -23v-23l-16 -23l16 -68l-16 -275l16 -137h-16l-16 -23h-16l16 -69v-23h-16zM122 222v23l32 46l32 -46v-23l-16 -23z M324 1512l16 16l-16 16l32 32h32l16 -16l16 16h7v-65l-23 -15h-64zM404 -232l16 16l26 -3v-45h-10l-16 -16h-16v48z" />
<glyph unicode="\" />
<glyph unicode="]" horiz-adv-x="401" d="M-12 1564l16 16h16l16 -16l16 16h80l16 -16l16 16h16l48 -32l18 7l5 42h16l17 -26l22 8l2 -63h-9v-91l-48 -98l32 -49v-49h-32q-32 0 -32 74l23 209l-222 -12zM15 -244h32v-32h32q0 48 32 48l64 -16l16 16l33 -5v17l32 74l-32 49v146q0 49 48 49v74q-48 0 -48 74l32 73 l-32 147l32 49l-32 74v24l16 25l-16 74l16 24v25l-16 73h16l-16 25v49l16 24l-16 25v172l32 49h32v-49l-16 -25l32 -245l-48 -196q48 0 48 -50v-147l-32 -49l32 -98l-16 -73l16 -123l-16 -25l16 -122v-73l-32 -49l16 -25v-76l6 -49h-71l-80 -16l-32 32l-32 -32h-64v64z" />
<glyph unicode="^" />
<glyph unicode="_" horiz-adv-x="469" />
<glyph unicode="`" />
<glyph unicode="a" horiz-adv-x="999" d="M-38 -224l41 -8l89 16l45 -32v-16l-45 -32q-45 0 -45 48h-44v-48q-21 2 -41 5v67zM-9 1522v47l50 -9l108 16l36 -32v-32h-72l-54 32h-18zM16 176q80 165 80 300l40 40l14 89l80 80l26 -29l20 -20l20 20h60q44 0 80 -160l-60 -20l20 -60l20 20h60l38 -60l-21 -142 q-34 18 -134 18q0 -60 -60 -100q-3 -156 -63 -156h-20l-100 20l-20 -20l-60 80l40 60q-60 0 -60 40zM153 -232l16 16h64l48 -32h64l48 32h208l48 -64l-16 -16l-160 16h-64l-16 16h-16l-32 -32h-96l-16 16l-16 -16h-32l-32 32l16 16zM156 276h20l60 -20v80l-20 20v20l60 60 v40l-120 -80l20 -60zM233 1512v48h16l16 -16h16l32 32l16 -16l112 16h208v-32l-48 -48h-16l-128 32l-16 -16v-16l-80 16l-112 -16zM396 1136v60l80 60q200 -29 200 -80q0 -100 -60 -100v-60h20l60 20l120 -360l-20 -20h-20l180 -460l20 -20l-40 -60l-20 20h-40q0 -40 60 -40 v-20q-20 -60 -120 -60h-40l-20 20l-20 60q-100 0 -100 100l-60 240l80 40v40q-54 0 -100 100l20 80q-80 0 -80 60l-60 160l20 20h20q0 60 -60 60l20 100zM496 876h20l40 40l-60 40v-80zM636 796l60 20v100l-60 -60v-60zM681 -248l32 32h32l48 -48l-32 -32l-80 32v16z M681 1560l16 16h80l48 -32l32 32h16l80 -16v-32l-32 -32l-48 32l-64 -32q-128 19 -128 64zM696 296q39 -91 80 -100l20 20v40q-60 0 -60 60l-20 20h-20v-40zM696 636h60l-40 40l-20 -20v-20zM809 -248l41 32h122l73 -14v-44l-134 10l-82 -16l-20 16v16z" />
<glyph unicode="b" horiz-adv-x="1104" d="M-11 -232l16 16l160 -32l16 16h64l16 -16l16 16h32l32 -32l-32 -32h-32l-96 16l-48 -16l-48 16h-16l-16 -16q-64 0 -64 48v16zM85 1528v16l16 16l48 -16l96 32h32l32 -32l-96 -48h-96zM92 116l20 20l-20 20v40l40 60l20 -20h40l-100 100q0 220 120 220v20 q-100 0 -100 100h-20l20 100l-20 120l20 20h20l-40 280l120 40l20 -20l20 20h60l60 -60v-60l-20 -20l40 -120l-40 -40v-20l40 -40l-20 -100l20 -280l-60 -60h40v-80l-20 -20l40 -140l-40 -40l40 -40v-20q-12 -48 -140 -100q-105 0 -160 120zM152 976l40 -80l60 20l-20 80 h-40l-20 -20h-20zM172 796l40 40v40h-40v-80zM192 696l80 -40h20l20 80l-20 20l20 20h-40zM232 336h60v20l-60 20v-40zM272 636l20 -60l40 40v20h-60zM309 1528v16h32l16 -16v-16l-16 -16zM373 -248l32 32l64 -16l64 16h96l32 -32v-16l-16 -16l-64 16l-160 -16q-48 0 -48 32 zM389 1560v16h96l16 -16q-13 -48 -96 -48zM517 1528v32l80 16h16l32 -32l48 32h80l16 -16q0 -45 -128 -64l-64 32l-48 -32zM532 76v20h60v20l-60 80q0 50 80 60l60 -20q56 160 160 160l-100 80v20h-20v-40h-60l-100 80l40 60q-40 0 -60 120l60 40h40l20 -20l20 20h60 q0 -60 -100 -60v-80l100 -40q12 116 60 180v20q-100 155 -100 220l-20 -20h-80l-40 40l40 40q-60 0 -60 40v100l40 40h140l180 -100q0 -40 60 -40l20 -20v-20l-20 -60q40 0 60 -200l-60 -40q0 54 -100 100v-40q59 0 100 -80q-20 -120 -60 -120l-20 20q-80 -16 -80 -160 l60 -20l-1 17l61 -37v40h-40q26 100 60 100l80 -160l-40 -40l20 -20v-20l-20 -80l20 -60l-120 -100q-60 0 -60 -60l-20 -20h-20l-60 20l-120 -20zM652 156l60 20v20l-60 20v-60zM652 1056h180v60l-120 -40l-40 40zM677 -264l48 48h32l32 -32v-16l-80 -32zM821 -280l48 64 h208l44 -29v-47l-28 28h-16l-16 -16h-64l-160 -16zM821 1544v32h208l92 -13v-53l-12 2l-80 -16v16l-16 16l-128 -32h-16zM832 336h40l60 60h-20l-80 -20v-40z" />
<glyph unicode="c" horiz-adv-x="1187" d="M-11 -255l16 16l96 -32l16 48l80 -16l48 16l16 -16h16l96 16l96 -16l64 16l16 -48h32q0 48 112 48l16 -16h16l64 16l16 -48h16q0 48 32 48h64l32 -32v-16h-16l-48 16v-16l-16 -16v-16l-96 16l-192 -16l-48 16l-16 -16h-16l-16 16h-16l-80 -16l-16 16v16l-80 -16h-32 l-16 16h-16l-32 -32l-48 16l-16 -16h-16l-96 32l-16 -16l-16 16v16zM5 1515l48 48h112l32 -32l-32 -32zM100 476l20 260v180l-20 140q177 200 300 200q91 -39 100 -80l-40 -100h20l40 -40l-80 -60q-66 -139 -120 -140l-40 40h-40v-120h40l60 40h20v-40l-60 -60l-20 20h-20 l-40 -60v-60h20q0 80 120 80l40 -80l-20 -140l20 -60l-80 -40v-20q104 0 160 -100l-20 -20v-20l40 -40q-27 -140 -80 -140h-20l-40 40v80h60v20q-60 0 -60 80h-60v-60l40 -60l-20 -100h-60q-32 0 -140 180v60zM180 816l20 -80h20v80h-40zM180 1056h60l80 20v20h-20l-120 -20 v-20zM200 336h40q0 60 60 60l-20 60l-80 -20l20 -20v-20l-20 -20l20 -20zM240 956l20 -20l60 20v60zM293 1499v48l80 16l16 -16v-32q0 -32 -48 -32zM360 1056h60l-40 40h-20v-40zM485 1531v32h32l32 -32l48 16l48 -16l32 32h144v-16l-16 -16v-16l16 -16h-32l-48 32l-16 -48 l-16 16h-16l-144 -16l-48 48h-16zM620 176l180 160l-40 40q40 0 40 60l20 20h160q100 -51 100 -160q-60 0 -60 -120q-60 0 -60 -120l-160 -60q-140 0 -140 120l20 20q-60 0 -60 40zM660 1116v40q20 60 120 60h20l20 -20l20 20h40l140 -220q60 0 60 -40q-20 -100 -80 -100 l20 -20v-20l-60 -60h-60q-95 59 -220 280v20l40 60h-60zM760 216l60 -20l20 20v20l-20 20h-20zM780 1016h40v60h-40v-60zM820 96h20l40 40h-20zM837 1499v32l64 32h80l48 -32l32 32h80l32 -32v-32h-80l-64 16l-176 -32zM920 356l60 -20v40h-60v-20zM1013 -271l32 32h16 l16 -48l-16 -16h-16zM1125 -239l64 16h11v-78l-75 30v32z" />
<glyph unicode="d" horiz-adv-x="1200" d="M-2 1532v48h63l80 -16l16 16l48 -48l64 48h64l48 -32l48 32l48 -48l-32 -32h-32l-32 32h-16l-16 -16h-32l-16 16l-32 -32l-80 16l-96 -16h-64zM58 -281l64 64l32 -32v-16l-64 -32h-32v16zM100 196l80 240l40 40q-52 0 -80 160v20l20 20l-60 260l60 60l-20 60l20 20h20 l40 -40v40l-20 60l-60 -40l-20 20v20l80 100h20l80 -20l60 20l40 -80l-20 -80l20 -20l-40 -40l60 -60v-40l-40 -80l40 -60q-20 -100 -80 -100v-40h40v-100l20 -20v-20h-60l80 -220q0 -160 -100 -160v-20h100v-40l-20 -20v-20q-280 0 -280 80zM180 236h60l-40 40h-20v-40z M186 -265l32 32h48l48 -32v32h128l16 -16l112 32v-16l16 -16l80 32l64 -16h16l16 16l176 -16l80 16l16 -16l64 16q58 -48 112 -48v-32h-32l-48 32l-144 -32q-48 0 -48 32l-80 -16h-80l-16 16q0 -32 -160 -32h-16l-32 32l-224 -32zM200 776q0 -30 80 -60q0 73 60 160l-20 20 h-60q0 -40 -60 -40v-80zM220 536h40l20 60h-20l-40 -40v-20zM240 356l40 -120q40 0 60 120h-20q-40 0 -40 60h-40v-60zM509 1516v16l16 16l16 -16l80 48h80l48 -32h16l48 32h16l32 -32l240 32v-16l16 -16l48 32h50l-2 -76q-7 -4 -16 -4h-32l-144 16h-16l-16 -16h-16l-16 16 l-96 -16h-16l-16 16l-96 -16h-48l-32 32l-80 -16h-64zM560 96v20l20 20l-20 20v40q0 33 120 80l20 20q0 40 80 40v80h60q0 -100 40 -100h20v40q-120 158 -120 260l40 80q0 201 -140 240q0 80 -100 80l-20 20v40l20 20l-20 20v20q26 100 60 100h160q40 0 80 -160l100 -20v40 h40v-60q-60 0 -60 -60h60l60 40l20 -20v-140l-60 -60l-40 40v20l20 20v20h-40q-40 0 -60 -120h20l100 -40l40 40l40 -60l-60 -20l40 -160l-20 -20l20 -100q-15 -200 -80 -200l20 -20v-20l-40 -40l-40 40q0 -100 -60 -100h-20v40h-20q-46 0 -60 -100h-80l-40 40l60 20v20h-80 q0 -60 -40 -60zM740 976l40 -40h20v40h-60zM800 236l60 -60v40l-40 40h-20v-20zM840 556q20 -60 120 -60v60l-120 20v-20z" />
<glyph unicode="e" horiz-adv-x="1154" d="M0 1515v32l16 16l176 -16l80 16h16l16 -16l96 16h32q32 0 32 -48l64 48h16l16 -16v16l160 -16h80l16 -16q0 25 160 32l48 -16v16l96 -16h16l16 16l14 -7v-41l-62 -16h-16l-16 16l-16 -16l-48 32l-16 -48q-32 0 -32 48l-128 -32h-32l-16 16v-16l-16 -16q-151 0 -208 48 l-64 -48h-16l-48 32h-48l-32 -32l-192 32l-16 -16h-64zM16 -244h96q32 0 32 -48h16q0 48 32 48h64l16 -16v16l64 -16l64 16l32 -32l32 32l48 -16h16l16 16l80 -16l80 16l16 -16l96 16h16l32 -32v-16l-32 -32h-64l-16 16l-16 -16l-96 16l-48 -16l-32 32l-128 -32l-144 32 l-32 -32h-32l-64 16l-64 -16h-32l-48 48v32zM100 156l20 60l-20 60l40 300l-40 40v60q0 50 80 60v40q-80 0 -80 40v20l80 160q-80 0 -80 80q52 160 80 160h80q34 0 60 -100l80 -20l-40 -180l20 -20v-20l-20 -80q0 -60 60 -60l20 -20v-20l100 20h60l20 -180q-84 -80 -160 -80 v20l-120 -40l-120 20v100l-20 100h-40v-80l40 -60l-40 -60q220 -66 220 -120l-20 -60l20 -20v-20l-20 -60l40 -40l-80 -140h-20l-60 40l-40 -40q-68 0 -100 140zM160 876l20 -60h20l20 60l-20 20h-20zM180 336l60 60l-60 40v-100zM200 236h60l60 60v20q-120 -27 -120 -80z M260 616l120 -80l20 100v40q-50 0 -140 80v-40l20 -20v-20zM300 976h40v60h-40v-60zM440 616h60v40l-60 -20v-20zM540 76l40 60l-20 20v60l80 80l60 -40l20 20v-20l140 60q80 -30 80 -60l20 20h20q56 0 80 -160l-60 -20l20 -20v-20q0 -40 -180 -60l-80 40l-100 -20 q-104 0 -120 60zM560 1156l60 40h100q10 80 60 80l20 -100q60 0 60 60l20 20h20l20 -60l60 40q41 -9 80 -100q-24 -180 -80 -180q-120 0 -120 80l-20 -20h-20v40h-20v-40l20 -20l-140 -40q-100 0 -120 200zM960 -276l64 32h80l16 -16l16 16h16l18 -2v-76l-2 -2h-32l-64 16 l-64 -16h-16l-32 32v16z" />
<glyph unicode="f" horiz-adv-x="1149" d="M-1 1529v16l32 32l16 -16v-16l16 16h48l16 -16l16 16h64l16 -48l-16 -16h-32l-64 16l-64 -16h-16zM15 -244h32v-32h32q0 48 32 48l64 -16l16 16l96 -16l336 16l64 -48l-32 -32h-32l-64 48h-48l16 -16v-16l-16 -16h-32q-80 4 -80 32l-16 -16h-160l-80 -16l-32 32l-32 -32 h-64v64zM100 96v20l60 80l-40 60v40h40v20l-40 100l20 20h20l20 -20h20v40q-60 0 -60 40v20h100q-40 80 -120 80v100q0 67 60 140v20l-20 20v20q46 0 60 100l-20 20l40 40l-20 20h-20l-20 -60l-80 60q87 157 140 180h20l140 -80v-40l-40 -60l40 -120h-20l20 -20v-120 l-20 -20v-20q240 0 240 -200l-100 -100h-20l-60 40h-40l-20 -80l20 -60l-20 -20l20 -20h20l-40 -180l20 -20h20l-20 -20v-20l20 -60l-20 -20h-80l-100 80h-20l40 -60l-40 -40zM180 196h40v-20l100 20v40h-100zM200 656q80 0 80 -100h20l20 60l-20 60l60 100l-20 60h-40 q-16 -160 -100 -160v-20zM255 1529q10 48 128 48v-16l16 16h64l32 -32l-16 -16h16l64 48h32v-16l160 16l128 -16l96 16v-32l-32 -32h-16l-48 16l-32 -32h-32l-48 32l-64 -16l-16 16h-16l-64 -16l-48 32l-48 -48h-176l-16 16l-16 -16h-16zM260 376h80v40l-80 -20v-20z M300 916l40 -40l20 20v20l-20 20h-40v-20zM460 536h80l20 100h-40zM560 1116q48 120 120 120l120 -40l40 40l20 -20l100 20h40q34 0 60 -100q-24 -180 -80 -180h-40l-20 20l-20 -20h-120l-20 20l-20 -20h-100l-60 60v20l20 20v20zM620 1036h60v40l-40 40l-20 -20v-60z M735 -260l48 32h16l48 -32l16 16v16l128 -32l32 32h64l64 -16l11 4v-63l-59 -5l-96 16l-80 -16l-16 16h-16l-64 -16l-16 16v16l-16 -16h-32zM991 1513l48 48l32 -32zM1071 1513q0 31 91 62v-71l-27 -7z" />
<glyph unicode="g" horiz-adv-x="1179" d="M-8 1532v16l32 32h80l64 -48l32 32h32v-32q0 -32 -48 -32zM8 -261l32 32l32 -32h16l48 32l16 -16l16 16h16l48 -16l48 16l32 -32l48 32l32 -32l16 16h16l48 -32h16l48 32l32 -32v-16l-80 -16l-16 16l-80 -16h-160l-64 16l-64 -16h-64l-32 32v16zM100 184q86 71 86 127 h-21l-22 -22h-21v22l21 126l-43 148q0 232 172 232v42l-43 42l-64 -63l-65 232l65 21l-22 21v43q0 38 194 105h107q0 -42 86 -42l22 -21v-42q-43 -49 -43 -148h-43l-86 126h-43v-42l107 -147l-64 -64l21 -21v-42l-43 -42l43 -148l-43 -42l86 -42l-43 -106l22 -21v-127 l-22 -21v-21q151 0 151 -42q-43 -211 -108 -211h-43l-21 21l-22 -21h-43q-208 149 -215 190zM200 416l60 -20l-20 -60l20 -20h20q60 20 60 120l-40 40l-100 -20v-40zM280 1532v32h32l16 -16l160 32l128 -48q0 48 32 48h96l32 -32l64 32l48 -16l80 16l16 -16l80 16h48l32 -32 l16 16h27v-61l-43 29l-32 -32h-96q-32 0 -32 48h-48q0 -48 -48 -48l-48 32l-96 -32l-32 32l-48 -32h-16l-16 16l-48 -16l-16 16h-16l-48 -16v16l-16 -16h-32l-16 16l-16 -16h-112zM300 136h40l20 80l-60 -20v-60zM300 856h20l40 40l-60 20v-60zM616 -261l32 32q54 0 112 -48 q0 32 48 32l48 -16v32l64 -16l267 15v-68l-11 -11h-80l-16 16l-16 -16h-16l-48 32l-80 -32l-128 16l-144 -16zM639 582q0 126 80 164h40q161 0 161 -94h60q0 43 15 43q9 0 25 -18q60 -24 60 -141v-24l-60 -70l20 -117l-20 -24l20 -23v-24l-60 -94l20 -23v-24l-140 -117h-100 l-80 94v117h60v24h-40v70q14 32 55 32q20 0 46 -8q3 30 3 53q0 59 -22 76q-20 -4 -48 -4t-65 4zM640 1157l160 99q180 -45 180 -116q0 -99 80 -99v-49l-20 -17v-16l40 -33v-17l-40 -33h-40l-100 83v-33l20 -17v-16l-20 -17h-60q0 35 -180 198zM719 535h40v94h-20zM760 113 h40l20 71h-60v-71z" />
<glyph unicode="h" horiz-adv-x="1187" d="M-11 1529q0 32 176 48v-16l16 -16v-16l-32 -32h-64l-16 16l-16 -16h-32zM5 -220h128v-32l-96 -48l-32 32v48zM96 1039l20 20h20l-40 120q60 14 80 80h40q160 -12 160 -60l-20 -60l40 -40v-20q0 -40 -60 -40l80 -100l-20 -80h-20l-60 40l-20 -60q60 0 60 -60h120 q47 0 60 -140l-80 -140h-60l20 -100h-20l20 -20v-60l-60 -140l40 -40v-80q0 -60 -80 -60q-200 46 -200 200v60l40 60v20l-40 40l40 100l-20 20v60l20 20v20l-40 40l20 120l-20 20v20l20 60l-20 20v20l20 20v20zM176 359l100 -40l20 20v20l-20 20h-100v-20zM176 719l60 -20 v40h-60v-20zM181 -236l112 16l96 -16v-48l-16 -16l-192 32v32zM196 799l60 60l-20 20h-40v-80zM196 1059l60 -80h20l20 120l-20 -20h-20l-20 20zM216 539q40 -46 40 -140h20l40 100q-40 0 -40 80h-20zM229 1513v16l48 48l32 -32h16l16 16h32v-32q28 32 224 48l32 -48v-16 l-16 -16l-48 16l-112 -16zM336 619q116 0 160 100h-20l-140 -60v-40zM405 -252l32 32h16l144 -16l48 16v-16l16 -16h16l16 16h144v-48l-16 -16l-16 16l-64 -16l-80 32l-48 -32l-144 32h-16l-16 -16zM656 559v40q0 180 180 180q0 -30 80 -60v20l20 -20h20l40 40v20l-20 -20 h-40q-33 0 -60 140h-20v-100h-20l-40 40v260q0 40 60 40l-40 60l40 60l20 -20h20l20 20h20q120 -26 120 -60v-40l-40 -60l60 -40l-20 -100v-60l20 -80l-20 -80l20 -80l-20 -60l40 -40v-40q-46 0 -80 -80l60 -100l-40 -80l40 -40v-60l-20 -20l20 -20v-60q0 -40 -120 -60 q0 39 -120 80q0 80 -60 80l20 140v80l-20 100h40q40 0 40 -120q60 0 60 80l60 20v120h-20q-40 0 -40 -80h-40l-100 20v-40h-20q-91 39 -100 80zM677 1529v32h48l16 -16l16 16h32v-16l-48 -48h-32zM805 1529q0 36 176 48l32 -48v-16l-16 -16l-80 16l-48 -16zM856 259l100 -20 l20 80h-20l-100 -20v-40zM933 -236l112 16q115 -7 155 -25v-39l-219 -16l-48 16v48zM936 959h60v40l-20 20v20l20 20h-60l20 -20v-20l-20 -20l20 -20zM956 839h40v20l-40 40v-60zM1045 1529v32l128 16l27 -16v-58z" />
<glyph unicode="i" horiz-adv-x="498" d="M-12 -261l192 32q48 0 48 -32v-32h-32l-32 32l-64 -48h-80l-32 32v16zM4 1532v16l32 32h64l64 -16l64 16h160l80 -16l16 16l18 -4v-40l-18 12h-16l-48 -32h-16l-16 16l-32 -32l-48 32l-32 -32l-48 16l-48 -16h-16l-16 16l-16 -16l-48 32h-16l-32 -32zM96 699v20l40 60v20 l-20 20v20l20 20h-20l60 80l20 -20h20l20 20l20 -20v40h-40v40l100 120v40l-160 -60l20 -20v-20l-60 -80l-20 100l40 40l-20 20v40l100 80l20 -20l20 20h60q100 -51 100 -160v-40q0 -60 -120 -60v-20h80v-20l-20 -20v-20q40 0 60 -120l-20 -60l20 -60l-20 -20h-20l40 -140 l-40 -80l20 -20h20l-20 -140v-100l20 -140l-20 -20h-20l-20 20h-20l-120 -20h-20q-52 0 -80 160q40 0 40 100h60v20l-20 20v20l-20 -20h-20l-20 20h-20l20 100l-20 80q0 180 140 180v60zM196 579h60l20 100l-80 -40v-60zM276 -261l32 32h112l16 -16l16 16h32l16 -16v16h2 v-73l-18 -7l-160 32l-16 -16h-32v32zM276 499h60l-20 20v20l20 20h-40z" />
<glyph unicode="j" horiz-adv-x="1149" d="M-16 1528q0 32 128 48v-48h32q0 48 32 48l32 -32v-16l-32 -32l-64 16l-64 -16h-32zM0 -280l32 64l96 -48h16l48 32h64v-32l-32 -32l-96 16l-80 -16h-32zM87 319v40l80 120h60l20 -20l100 40q44 -248 160 -340q0 -80 -160 -160h-20q-40 0 -40 60l-20 -20h-20l-100 120v40 l40 60v20q-100 0 -100 40zM207 319h20l60 20l40 -40h20v40l-20 20v20l-120 -20v-40zM224 1512l16 16l-16 16l32 32h32l16 -16l16 16h96l32 -32h16l16 16h64l160 16l16 -16l-48 -64h-208l-48 32h-64l-48 -32h-64zM247 199h60v60zM304 -232l16 16l112 -16l80 16v-16l16 -16 l128 32h16l48 -48v-32h-208l-112 16l-16 -16l-32 32h-16l-16 -16h-16v48zM647 199l160 220h20v-40h40l40 40v20l-140 20l20 100l-40 80l20 20v20l-20 20v20l20 120l-20 20v20l40 40l-40 40l60 60q0 60 -60 60l-20 20v20q59 140 180 140q120 -41 120 -80v-20l-20 -20l20 -20 v-20q0 -140 -80 -140v-40q76 0 100 -140l-40 -60l20 -20v-140l-20 -20l20 -20v-20l-20 -60l40 -40l-40 -40l-80 80v-100l100 -20l-40 -160h-20l-20 20h-20l20 -20v-40l-60 -100l-20 20h-80l-20 -20h-20q-100 103 -100 180zM707 99l60 20l-40 40h-20v-60zM752 -280 q0 45 128 64l64 -32l48 32l32 -32v-32l-80 -16h-16l-32 32l-48 -32h-80zM752 1528v16l80 32l32 -32l-48 -48h-32zM787 719l120 -20q0 60 60 60v80h-20l-60 -40l-40 40q0 -54 -60 -120zM807 519h60l20 20v40l-40 40h-40l40 -80h-40v-20zM880 1528v16l16 16l64 -16l160 16 q48 0 48 -32l-32 -32l-64 16l-64 -16h-96zM1040 -280q13 48 96 48l16 -48v-16h-96z" />
<glyph unicode="k" horiz-adv-x="1208" d="M-6 -249l127 16v-16l-48 -48h-32zM-3 1532q0 32 96 48h16v-64h-96zM96 179v20l40 60l-20 100h20l-20 20v100l60 180l-20 20v20l20 120l-80 80l60 120v80l-40 60v20l60 60h40l80 -60l60 60l60 -60q0 -60 -80 -60l80 -180l-40 -120l40 -40l-20 -20v-20l40 -100l-20 -20h-20 l-60 20v-20l80 -140l-20 -80l-100 20v-20l100 -100l-20 -20h-20l-60 40h-20l-40 -80v-20h20l60 40h40l40 -40l-20 -60l20 -60q-40 0 -40 -60l-20 -20h-80q-104 0 -120 60v20l20 20q0 60 -60 60zM141 1516l48 64h48q-11 -80 -48 -80h-32zM169 -265l32 32l48 -32q0 48 32 48 h32l144 -16h16l16 16h16l16 -16l96 16h16l16 -16l96 16h48l32 -32l80 16h64v-16l-16 -16l-16 16l-80 -48h-80l-48 32h-16l-48 -32h-16l-32 32l-240 -32v16l-16 16l-48 -32h-144v32zM176 599l60 -60l20 20v60zM196 399l80 -60v20l-20 60h-60v-20zM196 839h60l-40 40h-20v-40z M216 999h80l-40 40h-40v-40zM269 1548v32h32l48 -32l144 32q48 0 48 -32l80 16h80l16 -16q0 32 160 32h16l32 -32l224 32l67 -15v-49h-3l-48 32v-32h-128l-16 16l-112 -32v16l-16 16l-80 -32l-64 16h-16l-16 -16l-176 16l-80 -16l-16 16l-64 -16q-58 48 -112 48zM296 699 l20 -20h20v60zM496 479q0 75 180 100v-20l20 20h60l60 -60l-80 -60l40 -40h20l60 40q12 -80 160 -80l20 -20v-20l-20 -20v-20q0 -60 80 -60l20 -20v-20q0 -82 -60 -160l-160 -20l-320 300q0 49 -60 100zM516 899l160 200l20 20q68 0 120 120h140q100 -51 100 -160v-20 q0 -40 -80 -40l20 -20v-20l-140 -100l-60 20l20 -20v-80l-120 -60l-60 40l-60 -20zM656 899l40 -40v20l-40 40v-20zM696 959l20 -20h20l20 20v100h-40zM736 299h80l-40 80h-40v-80zM796 219l20 -60h20l20 80h-20l-20 -20h-20zM876 139h20l40 40l-20 20h-20l-20 -20v-40z M1001 -249l32 32h32l32 -32h16l16 16h32l16 -16l32 32l12 -2v-69l-12 -9h-64l-48 32l-48 -32z" />
<glyph unicode="l" horiz-adv-x="1137" d="M-5 -260l32 32l80 -16l64 16l64 -16q0 -31 -96 -64l-96 16h-48v32zM-4 1529v32l207 16l96 -16l80 16l16 -16h16l64 16l16 -16v-16l16 16h32l32 -32l-48 -32h-16l-48 32l-16 -16v-16l-128 32l-32 -32h-64l-64 16l-48 -16l-16 48h-16q0 -48 -32 -48h-16zM96 79v60l40 60v20 l-40 60l20 100l-20 100l20 20h20l20 -20v60q-60 0 -60 60l40 60l-20 20v40h20l20 -20h20v80l-20 -20h-20l-40 180l20 20h60l-20 -20v-20h40v-20l60 20v60l-60 -20q-100 40 -100 120q0 180 200 180q9 -41 100 -80l-20 -60l20 -180l-20 -20h-20l20 -20v-180l-20 -120l20 -100 l-20 -20l20 -100v-80l-20 -80l40 -120q0 -75 -180 -100q-120 41 -120 80zM176 439l40 -40h20l-40 40h-20zM235 -260l80 16l-48 -48zM236 79h80l-20 60h-40zM236 439h100v20h-100v-20zM236 819l100 20l-40 40h-60v-60zM236 999h60v120h-40l20 -20v-20l-40 -40v-40zM276 699 h60v80h-40zM331 -276l32 32h16l48 -16l32 32h32l48 -32l64 16l16 -16h16l64 16l48 -32l48 48h176l16 -16l16 16h16l32 -32q-10 -48 -128 -48v16l-16 -16h-64l-32 32l16 16h-16l-64 -48h-32v16l-160 -16l-128 16l-96 -16v32zM536 99v120l60 60l20 -20h20l40 40h20 q40 0 40 -80h20l160 100q120 0 120 -140l-20 -20v-20l20 -80l-40 -40q-206 14 -260 80h-20q0 -80 -40 -80h-40zM619 1545l32 32h32l64 -48h48l-16 16v16l16 16h32q80 -4 80 -32l16 16h160l62 12v-63l-14 3l-16 -16l-96 16l-336 -16zM1083 -244l16 16h32l14 -3v-61h-46z" />
<glyph unicode="m" horiz-adv-x="1187" d="M-11 -255l16 16h16l16 -16v-16l-16 -16h-16l-16 16v16zM5 1531l16 16h48v-32h16q63 48 224 48l80 -32v-32l-64 -16q-320 0 -320 48zM69 -239l16 16h48q176 0 176 -48l-32 -32h-32l-64 16l-48 -16q0 32 -48 32l-16 16v16zM100 159q44 0 60 180q-60 0 -60 40v20l100 100 q60 0 60 -100l60 60h-60v20l40 40q120 0 120 -240v-80l-40 -60v-20l40 -60l-160 -40h-40q-36 0 -120 140zM140 1059v20q0 100 180 180q100 0 220 -280q60 0 60 -40l-40 -120l20 20h40l20 -20h20q-25 -200 -80 -200l-60 20l-20 -20v-20q-120 47 -120 140l80 40v20h-40v20 l-20 -20h-40l-60 60l60 40l-20 60h-40q0 -60 -40 -60zM220 299h20l40 40h-60v-40zM280 239h20l60 60h-60zM341 -239h80l64 -16l176 32l16 -16v-32l-64 -32h-80l-48 32l-32 -32h-80l-32 32v32zM437 1547l16 16h16l32 -32l-32 -32h-16zM565 1515v16h16l48 -16v16l16 16v16 l96 -16l192 16l48 -16l16 16h16l16 -16h16l80 16l16 -16v-16l50 10v-50l-50 -8l-96 16l-64 -16l-16 48h-32q0 -48 -112 -48l-16 16h-16l-64 -16l-16 48h-16q0 -48 -32 -48h-64zM693 -239h32l48 -32l16 48l16 -16h16l144 16l48 -48h16v-32h-32l-32 32l-48 -16l-48 16l-32 -32 h-144v16l16 16v16zM740 899v60q0 40 80 40v20q-60 0 -60 40t60 40v120l40 40h40l20 -20l60 20q100 0 100 -320l-40 -80l40 -40l-20 -220l20 -120q-79 0 -120 -160l100 40l20 -20l-20 -20v-80h40v-40q-74 -200 -220 -200l-40 40q33 0 80 120h-60q0 -60 -40 -60l-40 40l40 240 v60l-40 120l20 60l-20 120q120 0 120 40l-20 20h-20l-20 -20h-20q0 46 -80 120zM840 559h20l20 60h-40v-60zM840 839h60v140h-60v-20l40 -60l-40 -40v-20zM880 639h20l60 60l-60 20l-20 -20v-60zM940 579l20 -100l80 140l-60 40l-40 -60v-20zM940 1099l40 -60l-20 -60h40v40 h20q-41 120 -80 120v-40zM1125 -255q0 32 48 32l18 -6v-64l-50 -10l-16 16v32z" />
<glyph unicode="n" horiz-adv-x="1179" d="M-12 -293l32 64l288 -16l64 16v-32l48 16q48 0 48 -32q58 48 112 48l32 -32l-32 -48l-144 16l-128 -16l-80 32l-48 -32h-16l-16 16l-16 -16h-80l-16 16l-16 -16h-16zM-12 1516l16 48h64l16 -16l32 32h48l80 -16l16 16l80 -16l48 16l64 -32l32 32h96q32 0 32 -48l128 48 l160 -32l16 16h32v-32l-32 -32h-112l-16 16l-16 -16h-32l-16 16v-16l-48 16h-16l-16 -16l-48 16l-16 -16h-16l-48 32l-32 -32l-96 32l-48 -32q-48 0 -48 48h-48q0 -48 -32 -48h-96l-32 32l-48 -32h-32zM96 79v60l60 160q-40 0 -60 140l60 60l20 -20h20l60 20l160 -80v-20 q-40 -52 -40 -180h-20l40 -80q-20 -120 -60 -120l-40 40l-120 -40q0 40 -60 40zM116 1179l80 80q40 0 40 -80h40v60h40q157 -171 300 -420v-20h-40v-40l20 -20v-20h-80q20 -120 60 -120h20l-20 100l120 40q180 -227 180 -300l-20 -20l100 -80v-60l-20 -20l20 -60l60 40h20 v-140q0 -34 -160 -100l-120 160l20 260h-120v-20h40v-40q-100 0 -300 280l-40 40l20 60h-20l-40 40l20 20v20q-220 181 -220 360zM256 999l20 20q60 0 60 -120l120 60v20l-120 80h-20l-60 -20v-40zM396 839h40v-20l100 40v20h-40l-100 -20v-20zM660 -277l32 32l48 -32h16 l48 32h16l16 -16l32 32l48 -32l32 32l48 -16l48 16h16l16 -16l16 16l48 -32h16l31 31v-79h-63l-64 16l-64 -16h-160l-80 16l-16 -16l-80 16v16zM716 499h20l20 60h-40v-60zM776 959v20l20 20l-20 20v60q0 123 22 159l158 21q105 0 120 -200v-80l-20 -20l20 -20v-80l-60 -60 l-100 100h-40q0 -60 80 -60v-60q-112 0 -180 180zM836 939h20l40 100h-60v-100zM916 1079h60v60h-60v-60zM956 999h20l60 20l-40 40l-40 -40v-20zM976 279v20l20 20h20l20 -20v-20l-20 -20h-20zM996 1532v32h32l32 -32l64 48h63v-56l-143 -24q-48 0 -48 32z" />
<glyph unicode="o" horiz-adv-x="1175" d="M-7 -236l48 16l112 -48q0 36 176 48l112 -16v-48l-48 -16l-224 16l-112 -16q0 32 -64 32v32zM-6 1529v16l31 32l32 -32l48 32l16 -48l80 48l128 -16v-32l-192 -32v16l-16 -16h-96zM100 340q40 0 60 120l-20 20h-20l20 100v260l40 60l-60 60q58 220 140 220l40 60 q100 -26 100 -100h40q0 60 40 60l60 -60v-80q-140 -151 -140 -240l-40 -40l20 -20v-40l-20 20h-20v-60h60v-20q0 -40 -60 -40l80 -100l-20 -20v-120q75 -180 140 -180q0 -200 -220 -200v20q0 50 80 60v40l-100 140l-20 -20v-20l60 -80v-20q0 -40 -60 -40l-160 160l20 60z M180 500l40 -40l20 20v80zM180 620h20l40 40h-60v-40zM220 820h20l40 40v40h-40l-20 -60v-20zM240 1040l20 -60h40q0 60 60 60v40h-20zM260 780h60v60zM361 1513v16l32 48q176 -12 176 -48l-64 -32l-48 16l-80 -16zM537 -236h144l16 -16h16l16 16v16l48 -16l144 16h16 l32 -32l-32 -32l-16 16h-16l-144 -32l-48 32l-80 -32l-64 16l-16 -16l-16 16v48zM585 1545v16h32l16 -16l16 16h48v-32l-32 -32h-32zM680 40q14 140 40 140l-20 20v20l40 40l40 -40l20 20v20l-20 20v20l40 160l-20 180v60q0 100 80 100v60h-20l-60 -20l-120 320 q91 78 180 80l20 -60l20 20q120 -47 120 -80l-20 -20v-20q60 0 80 -360l-20 -20h-20l40 -120l-20 -20v-20l20 -60q-46 0 -60 -100l40 -40v-180q0 -40 -100 -40q0 -59 -80 -100h-40l-80 20l-60 -20zM745 1513v16l32 48q197 -16 224 -48v32h32l16 -16h16l32 32l48 -48v-16 l-224 -16l-112 16l-48 -16zM760 1060q40 0 40 -60h40v20l-40 80zM840 200l20 -60h40v60l-60 20v-20zM840 300l20 -20h40v20l-20 20v20l60 80h-100l20 -60zM920 940l20 -80h40l40 40l-60 60v20zM940 260l40 40v20l-40 -40v-20zM985 -236l96 16l112 -16v-32l-192 -32l-16 16 v48z" />
<glyph unicode="p" horiz-adv-x="1187" d="M-11 1513v32q64 0 64 32l112 -16l224 16l48 -16v-48l-112 -16q-176 12 -176 48l-112 -48zM-10 -252l31 32h96l16 -16v16l192 -32v-32l-128 -16l-80 48l-16 -48l-48 32l-32 -32l-31 32v16zM96 220l40 60l-20 20v100l40 60v40l-40 40l20 140v20l-20 80l20 60l-20 100l20 20 l20 -20h40v60l-20 -20h-20l-20 20h-20l20 20v40l-40 40q40 115 140 160q160 -15 160 -160v-20l-20 -120l40 -220l-40 -40l20 -80q-120 0 -120 -40l20 -20l20 20h20q40 0 40 -60l-20 -60l40 -40l-20 -20h-20l60 -160v-60l-40 -40l20 -20v-40l-60 -80l-60 20l-120 -20h-20v60 q0 33 120 80l60 -20l40 60v40q-80 0 -80 60h-60l40 -60v-20q-60 0 -60 -60l-20 -20h-20zM176 560l40 -40l20 20v20l-40 40h-20v-40zM236 1080l60 -60l20 20l20 -20v40zM256 420l60 -60l20 60h-80zM256 840h40l40 40v20h-20zM296 680l60 60l-40 40zM357 -236l16 16l80 -16 l48 16l64 -32q0 -35 -176 -48l-32 48v16zM533 1513v48l16 16l16 -16l64 16l80 -32l48 32l144 -32h16l16 16l32 -32l-32 -32h-16l-144 16l-48 -16v16l-16 16h-16l-16 -16h-144zM536 600v20q21 83 200 140l60 -80l-20 -20l20 -20l-20 -20l80 -20q0 50 80 60l-20 20v80l120 120 h20l40 -40l-100 -60l40 -80q-33 -111 -100 -160h-20l-20 20h-20q-39 -91 -80 -100l-60 40l-60 -40q-140 0 -140 140zM556 1000v60l20 20l-20 20v40l20 20l-20 20v40l100 20l20 -80q60 0 60 80q260 -96 260 -220q46 0 60 -100l-20 -20h-20l-80 20l20 -20v-60q-40 0 -40 -60 l-20 20h-20l-20 -80l-60 60v60q0 40 120 60v20l-120 20l80 60v40l-20 60l-60 -40l20 -60h-20l-80 20l-80 -20l-20 20l-40 -40zM581 -268l48 48h32l32 -32v-32h-48l-16 16l-16 -16h-32v16zM636 620l60 -20l20 60h-20l-60 -20v-20zM741 -236l16 16l48 -16l112 16l224 -16v-16 l-48 -48l-32 32h-16l-16 -16h-32v32q-27 -32 -224 -48l-32 48v16zM981 1513v48l16 16l192 -32v-32l-112 -16z" />
<glyph unicode="q" horiz-adv-x="1191" d="M-7 -252l32 32h32l16 -16l16 16h64l32 -32v-16l-16 -16v-16q-176 16 -176 48zM9 1497v48l32 32l96 -48v-32h-128zM100 560v120l40 160l-40 60q123 320 240 320l100 20l60 -100l-140 -380q-60 -48 -60 -100h20l20 20h20l40 -60v-20h-40v-20l40 -60l-40 -40l20 -120 l-40 -40q129 0 160 -180q0 -110 -140 -160h-20q-76 80 -160 80l-20 20v20l120 20v20q-107 0 -140 60l-20 220l60 40h40l80 -20h40l-40 40l-80 -20v40l-20 -20h-20zM180 660h40l-20 60h-20v-60zM185 1513v32l192 32l16 -16v-48l-96 -16zM233 -236l224 16l112 -16l48 16 l16 -16v-16l-32 -48q-196 16 -224 48v-32h-32l-16 16h-16l-32 -32l-48 48v16zM260 580l20 -20v-20l60 20v20l-40 40h-40v-40zM280 1020l60 -20l20 20v20l-60 20l-20 -20v-20zM409 1529l32 32l16 -16h16l144 32l48 -32l80 32l64 -16l16 16l16 -16v-48h-144l-16 16h-16 l-16 -16v-16l-48 16l-144 -16h-16zM640 100h20l-20 20v40l120 80l40 60l-20 100l20 100h40q0 -60 40 -60v20q0 72 -100 180v60q33 80 120 80v40q-228 188 -240 260v20q40 0 40 100l20 20h20l20 -20l20 20h80l60 -60l20 20h20q47 0 100 -340l-60 -20v-40q0 -40 60 -40v-140 l-40 -40v20l-20 -20h-40l-20 20h-20v-20l40 -40l60 20l40 -60v-40q0 -40 -140 -40q63 -42 93 -42l-20 -20v-80l-29 -107l169 27l51 -76l-80 -40l20 -20v-40l-40 -40h-40q-50 0 -110 52l-154 -24v50l-20 -20h-20l12 -35l-96 44l4 11zM681 -252l32 32h32l48 -48v-16h-32 l-16 16l-16 -16h-48v32zM809 -252l64 32l48 -16l80 16l16 -16v-16l-32 -48q-176 13 -176 48zM860 1040l40 40v20h-40v-60zM880 160h60l-60 60v-60zM937 1513v48l48 16l224 -16l7 1v-32q-31 -24 -167 -33zM1049 -252l163 28v-54l-35 -22l-128 16v32z" />
<glyph unicode="r" horiz-adv-x="1150" d="M-10 -249l31 32h64l96 -16l80 16l32 -32l16 16h32l16 -16h16l32 32h32l32 -32l-48 -48l-48 32l-48 -32h-64l-64 48l-48 -48l-16 16l-80 -16h-63v48zM50 1564v16h32l64 -32v-16l-32 -32zM92 280l40 180l-20 20v20l20 20l-20 100l20 60l-20 20v20l20 80l-20 60q20 80 80 80 l-20 20v20l20 20l-20 20l-20 -20h-20l-40 40v100q0 33 140 80q140 0 140 -80l-20 -20v-20l20 -80v-20l-20 -20l40 -240q-20 -80 -80 -80v-40l20 20h20l60 -160l-100 -200h20l40 -40l-20 -100l20 -80l-240 -60l-20 20v60l40 60zM152 760l40 -40h40l-80 60v-20zM172 420 l20 -20h20l20 60h120v20l-120 120h-40l40 -60v-80q-60 0 -60 -40zM178 1548l144 32l224 -32l32 32h16q160 0 160 -32l16 16h80l80 -16q0 32 48 32l144 -32l36 24v-32q-33 -11 -68 -40l-64 16l-16 -16l-80 16l-176 -16l-16 16h-16l-64 -16l-80 32l-16 -16v-16l-112 32 l-16 -16h-128v32l-48 -32h-48zM192 240l40 -40h20v60h-60v-20zM252 940h20v100h-20v-100zM501 -233h64l80 -16l32 32h48l96 -16l16 16h16l96 -16l16 16h16l16 -16h16l144 16h5v-80h-5l-48 32l-16 -16v-16l-240 32l-32 -32h-16l-48 32h-16l-48 -32h-80l-80 48l-16 -16l-16 16 v16zM512 1040v20q0 108 80 140h100l20 -20l20 20h80l120 -140q93 0 120 -280q-35 -140 -80 -140h-20l-60 40v-20l20 -100q-66 -60 -120 -60v-20q120 -4 120 -120h-20q120 -137 120 -200h-20l20 -20v-40l-120 -100l-80 20l-20 -20q-12 140 -100 140v20l40 60v40l-60 -40 l-20 20v100l60 20l-40 60l-60 -20q-80 107 -80 180h40q40 0 40 -60l80 80l-20 20l20 20h-40l-60 -20l-40 60l140 80h20q40 0 40 -60h80l-80 120l40 80q-95 0 -140 80q-60 0 -60 40l-20 -20h-20zM692 1040l20 -60l20 20h20l20 -20l20 20v20zM752 560h80q-60 66 -60 120h-20 v-120zM872 820l40 -80l60 60v40l-20 -20h-40l-20 20h-20v-20z" />
<glyph unicode="s" horiz-adv-x="1104" d="M-11 1512v16q0 48 64 48l16 -16h16l48 16l48 -16l96 16h32l32 -32l-32 -32h-32l-16 16l-16 -16h-64l-16 16l-160 -32zM85 -248l32 32h96l96 -48l-32 -32h-32l-96 32l-48 -16l-16 16v16zM92 880l40 120l-20 60q188 160 260 160l100 -100l-40 -160l-20 20q-140 0 -180 -100 l100 -20l-20 20v20l20 20h80l100 -160l-20 -20h40q0 60 40 60q300 -151 300 -260l20 20h20q33 0 80 -140h20l-20 -100l20 -60q-32 -160 -80 -160l-20 20h-20q0 -80 -60 -80h-60l-20 20h-20l-20 -20l-80 120l100 160l-20 20v20l20 80q-30 80 -60 80l-20 -60l20 -20h-20 q-91 39 -100 80l-20 -20h-40q-262 240 -320 240zM112 300v40l100 80h80q45 0 80 -200h20v40l-20 20l20 20h20l20 -20v-20l-20 -20q80 -10 80 -60v-80l-80 -80h-40l-40 40l-60 -20q-47 7 -140 120v60l20 20v20zM309 -248l32 32l16 -16v-16l-16 -16h-32v16zM373 1528 q0 32 48 32l160 -16l64 16l16 -16v-16l-32 -32h-96l-64 16l-64 -16zM389 -280l16 48q83 0 96 -48l-16 -16h-96v16zM517 -248l32 32l48 -32l64 32q128 -19 128 -64l-16 -16h-80l-48 32l-32 -32h-16l-80 16v32zM552 620h60v60h-20l-40 -40v-20zM612 600l20 -60h60l-20 60h-60z M612 1060q24 160 80 160h40l20 -20h20l40 40l80 -100q100 0 100 -40v-80l-20 -20l20 -20v-40q-70 -120 -180 -120h-20q0 131 -140 200zM677 1544l32 32l80 -32v-16l-32 -32h-32zM712 600l140 -280h40l20 100v20h-20v-40h-20q-40 0 -100 200h-60zM821 -264l48 48h16l128 -32 l16 16v16l80 -16l12 2v-52l-92 -14h-208v32zM821 1560l16 16l160 -16h64l16 -16h16l28 28v-47l-44 -29h-208zM852 300l60 -80v40l-40 40h-20z" />
<glyph unicode="t" horiz-adv-x="1112" d="M0 -260l112 16h16l16 -16l16 16h80l64 -32v-16l-32 -32h-16l-64 16l-64 -16h-32l-32 32l-16 -16h-16l-32 32v16zM0 1531v16h16l16 -16h16l64 32l16 -16h16l96 16v-16l48 16q160 -7 160 -32l16 16h62l27 -62q-27 -2 -57 -2l-16 16v16l-16 -16h-32l-128 32q0 -48 -32 -48 l-16 48l-48 -32l-16 16l-16 -16h-16l-64 16l-64 -16zM100 1100q11 140 120 140l20 -80h20q0 60 40 60h40v-20l440 40l20 -20l20 20l40 -40l100 20l60 -80q-40 -200 -80 -200l-100 60l-40 -40q-40 0 -40 60l-80 -60h-60l-60 40h-20v-60l-280 40l-20 -20v-20q-95 0 -140 160z M400 160l60 200q-47 0 -60 140l40 40l-20 80h20l-20 20v20l20 20v20l-20 60l60 40h160q80 -32 80 -140v-40l-60 -60l60 -220q-20 -80 -80 -80v-20q60 -73 60 -140v-20l-40 -40h-20l-20 20l-20 -20h-120q-80 40 -80 120zM420 1060h20l80 20l60 -20l20 20v40q-80 0 -80 40 l-100 -20v-80zM480 280h80v40l-80 -20v-20zM520 480h20l40 40l-40 40zM637 -312l11 54l72 14l16 -16h16l48 16l32 -32l32 32l64 -16l64 16v-16l16 16h64q32 0 32 -48h16q0 38 19 46l-4 -69l-31 7l-64 -16h-32l-32 32l-144 -32l-128 32l-32 -32zM760 1040h20l40 40h-20z M913 1555l47 -8l16 16h16l80 -16l69 6l-5 -54h-16l-16 16l-174 -29z" />
<glyph unicode="u" horiz-adv-x="1179" d="M-2 1532l47 48h32l48 -48v-16zM1 -249l16 16h96v-64h-16q-96 16 -96 48zM100 320v20q60 0 60 60l-20 80l40 40l140 -60q-20 66 -80 80v40l-20 -20h-60v20l20 100l-40 40l20 180l-20 20v20l20 80v40l-40 80q39 91 80 100l40 -40l40 40q140 0 140 -220l-100 -60v-40 q100 -14 100 -60v-40l-60 -80l40 -40q0 -40 -60 -40l60 -60l-40 -300q104 0 180 -140v-40q-45 -100 -200 -100q-100 32 -100 140q-87 0 -120 80l20 20v20zM145 -233l16 16h32q37 0 48 -80h-48zM173 1548v32h144l48 -32l16 16v16l240 -32l32 32h16l48 -32h16l48 32h80l80 -48 l16 16l16 -16v-16h-64l-80 16l-32 -32h-48l-96 16l-16 -16h-16l-96 16l-16 -16h-16l-16 16h-16l-144 -16h-32q-32 0 -32 48l-48 -32zM200 280l60 -60l80 20v40l-140 20v-20zM200 1100h40l40 40v20h-60l-20 -20v-40zM240 1000l20 -20h20v60zM273 -265q54 0 112 48l64 -16 l16 16l80 -16l176 16l16 -16h16l64 16l80 -32l16 16v16l112 -32l16 16h128v-32l22 15v-38l-38 -9l-224 32l-32 -32h-16q-160 0 -160 32l-16 -16h-80l-80 16q0 -32 -48 -32l-144 32l-48 -32h-32v32zM340 180l40 -40l80 20v20l-100 20h-20v-20zM640 120v20l40 40l-20 20v60 q120 0 120 160h20l-40 220l20 20h20l-20 60l40 220l-20 60l40 100l-60 60q27 80 180 80h20l60 -60l-20 -60l40 -200l-40 -40v-20l40 -60v-60l-40 -40h-20l-20 20h-20v-20l40 -60l20 20h20l40 -40l-80 -200h20l60 -180q-56 0 -100 -140l-100 -60l-60 40h-40v-60h-60zM820 280 h60v40h-60v-40zM820 580l40 -120h20l40 140l-20 20l-80 -20v-20zM840 900h40l60 40l-20 60h-20zM860 160h60l40 40v20h-60l-40 -40v-20zM860 440l60 -80h20v40l-40 40h-40zM1005 1532l48 48l48 -32l48 32h42v-58l-10 10l-16 -16h-32l-16 16h-16l-32 -32h-32z" />
<glyph unicode="v" horiz-adv-x="870" d="M-16 -247l28 3h16l16 -16l16 16h80l64 -32v-16l-32 -32h-16l-64 16l-64 -16h-32zM-14 1512l1 38l25 13l16 -16h16l96 16v-16l48 16q160 -7 160 -32l16 16h80l160 16v-16l16 16h16l64 -48q0 48 32 48h32l96 -16l16 16h16l2 -66l-82 -14l-32 32h-48l-48 -32h-16l-64 48 q-57 -48 -208 -48l-16 16v16l-16 -16h-32l-128 32q0 -48 -32 -48l-16 48l-48 -32l-16 16l-16 -16h-16l-64 16zM0 1145v20l120 80h120l60 -60q0 -40 -60 -40l-60 20l40 -40l-40 -100h20l80 60q64 0 100 -220l-20 -20h-80l-20 80h-60l20 -120l100 20l80 -100v-20l-20 -20v-20 q32 0 100 -140l-40 -60v-40l120 40h20q44 0 60 -180l-140 -240l-120 -20q-100 23 -100 160l40 40v40l-20 -20h-40l120 140v40l-100 -80h-20q-60 20 -60 120l20 20q-60 0 -60 40l20 20h20l40 -40v60q-98 0 -120 240l-80 160l20 80l-40 40l100 20v60l-100 -40zM300 -276l32 32 h16l96 -16l16 16l80 -16l80 16l16 -16h16l48 16l32 -32l32 32l64 -16l61 16l5 -65l-18 17l-144 -32l-128 32l-32 -32l-48 16l-96 -16l-16 16l-16 -16h-64l-32 32v16zM360 145l40 -80h20v60l-20 20h-40zM380 245l80 -20l20 20v20l20 -20h60q0 40 -120 80l-60 -20v-60z M500 365l60 -20v40h-60v-20zM500 845v20l60 80l-20 60q0 151 120 220l100 -20v20q91 -39 100 -80v-120h-80v-20l40 -60l-60 -100l40 -40l-60 -60h-20l-20 20h-20q0 -60 -40 -60h-60l-40 40l20 20v20zM660 885l20 -60h60l-20 120l-60 -20l20 -20v-20h-20z" />
<glyph unicode="w" horiz-adv-x="1300" d="M0 -260l1 27q79 10 232 10l64 -16v-32l-80 -32q-152 0 -217 43zM7 1483l1 49q33 4 33 31l48 -16l64 16h32l32 -32q0 -48 -176 -48h-34zM8 1045v20l60 20v20q-60 0 -60 40l100 100h20l20 -20l20 20h40l100 -120v-20l-20 -20l140 -420l-60 -100v-20q0 -32 140 -100l-20 -20 v-40h100v-40q-80 0 -80 -60l100 -120q-112 -140 -240 -140q-49 0 -120 220l20 60l-20 20h20l60 -40l-20 -20v-20l80 -80v40l-20 20v20l80 20l-20 80l-80 -60h-20q0 94 -160 180l20 20v20l-20 100l40 40l-80 80l60 20q-120 100 -120 180h20l20 -20h20v60l-60 20l40 80h-20 l-60 -40zM148 885q100 -14 100 -100h20v100h-40v40h60v20l-40 40h-60l-40 -80v-20zM249 1499v32l32 32h80l32 -32l48 32h80l64 -32v-32l-16 -16l-176 32l-64 -16h-80zM345 -287l16 48h16l32 -32l-32 -32h-16zM473 -255l32 32h64q32 0 32 -48h16l16 48l64 -16h16l16 16 q112 0 112 -48h32l16 48l64 -16l96 16l96 -16h16l16 16l48 -16l79 16v-80h-15l-16 16l-48 -16l-32 32h-16l-16 -16h-32l-80 16v-16l-16 -16l-80 16h-16l-16 -16h-16l-16 16l-48 -16l-192 16l-96 -16v16l-16 16v16l-48 -16h-16v16zM568 765l20 20h20l-40 100l20 20h100 l20 -20l20 20h20q28 0 120 -200v-20h-40v-20l20 -60l-40 -40l180 -160l40 40h20l40 -40l-20 -20v-20l20 -80q-40 0 -40 -60l20 -60l-60 -20l20 -20v-20q0 -51 -180 -100q0 30 -80 60q-12 116 -60 180l20 20v20q-48 0 -60 180h20l-40 120l40 40h-20l-60 -20l-20 20v20h20z M601 1499l16 16v16l-16 16v16h144l32 -32l48 16l48 -16l32 32h32v-32h-16l-48 -48l-144 16h-16l-16 -16l-16 48l-48 -32h-32zM768 285l20 -60h40l-20 80l-20 -20h-20zM848 85h100v20l-80 20l-20 -20v-20zM868 325h60l20 60l-60 40l-20 -20v-80zM988 985v20l40 40l40 -40 l-20 -20h60v20l-100 120l100 100h20l60 -40l40 40l60 -60v-20q0 -200 -40 -200l20 -20v-40q0 -40 -120 -60l-60 20l-60 -20zM1033 1515v32l16 16l80 -16v-48l-48 -16q-48 0 -48 32zM1225 1531l32 32h47v-59l-47 -5z" />
<glyph unicode="x" horiz-adv-x="980" d="M-19 1487l10 75l1 1h32l64 -16l64 16h16l32 -32v-16l-64 -32h-80l-16 16l-16 -16h-16zM-18 -273l10 -3l64 16h16l16 -16l16 16l48 -32l16 48q32 0 32 -48l128 32h32l16 -16v16l16 16q151 0 208 -48l64 48h16l48 -32h48l32 32l192 -32l16 16h36l1 -55l-85 7l-80 -16h-16 l-16 16l-96 -16h-32q-32 0 -32 48l-64 -48h-16l-16 16v-16l-160 16h-80l-16 16q0 -25 -160 -32l-48 16v-16l-96 16h-16l-16 -16l-19 10zM-4 165q0 50 80 60v120l100 -20v20l100 100h60l80 -80v-40q0 -105 -100 -200l-20 20h-20q0 -140 -80 -140q-100 26 -100 60l20 20v40 h-20v-40h-20zM56 1005v20l40 60v20h-40v60q33 80 140 80l120 -80l-40 -40q60 0 60 -80q60 0 60 -40v-20l-20 -20v-20q60 0 60 -40v-20h-40q-40 0 -40 80h-20l-20 -160l140 20l20 -60l-80 -120v-20l60 -20l20 20q0 -40 60 -40l60 20v60l-20 -20h-80l20 100v60l-40 60v20h20 l240 -380q80 0 80 -100q38 0 120 -160h20v-140l-60 -60h-20q-40 0 -40 60h-40q0 -80 -40 -80q0 97 -200 280q0 91 -140 180q0 60 -80 140v100l-100 -20q-12 92 -180 300zM116 965h60v80q-30 0 -60 -80zM136 125h20l60 60v20h-20q-30 0 -60 -80zM296 1515v16l32 32h64l16 -16 l16 16l96 -16l48 16l32 -32l128 32l144 -32l32 32h32l64 -16l11 3l1 -19h-12q0 -48 -32 -48h-64l-16 16v-16l-64 16l-64 -16l-32 32l-32 -32l-48 16h-16l-16 -16l-80 16l-80 -16l-16 16l-96 -16h-16zM316 305l40 -40h20v20l-40 40h-20v-20zM476 565q0 -120 140 -120v20 l20 20h20v20q-80 0 -80 60h-100zM556 985q33 80 120 80v20q-60 0 -60 40l80 20l-20 20v20l60 60q200 0 200 -240v-20q-46 0 -120 -160q-60 0 -60 -40h-100l-80 80l20 20h20l20 -20v20zM656 305h60v60zM656 385h20l60 60v20h-60zM776 1105l40 -40l-20 -20v-40h20l60 20 l-80 80h-20zM836 165h20l40 40v20z" />
<glyph unicode="y" horiz-adv-x="999" d="M0 -272l15 44l48 -16l64 16h64l32 -32l128 32v-16l16 -16l48 32h16l48 -32l-32 -32h-32l-16 16v-16l-16 -16l-64 16h-16l-16 -16l-80 16l-96 -16l-111 9v27zM4 1165h20q80 -40 80 -120h20v60l-40 40v40l80 80l120 -100v-40l-100 20v-40h80l20 20l160 -180l-40 -40v-20 q55 0 220 -120h40q-14 -120 -40 -120q20 -160 60 -160l-40 -200l40 -140l-20 -20h-20l20 -20v-20q-20 -60 -120 -60h-20q-140 0 -140 160q12 116 60 180l-40 40l40 40l-40 60v20l20 20v20l-80 80l40 40h20l20 -20h20v120l-80 20l20 -20v-80l-40 -40h-20l-60 60v40l40 60v80 h-20q0 -80 -40 -80h-40q-120 68 -120 120l20 60q-100 23 -100 160zM4 1511v59l43 7q96 -32 96 -64l-64 -16l-64 16zM143 1529l32 32l48 -48zM164 905h60l20 120q-40 0 -40 -80h-40v-40zM239 1545v32l96 -16l128 16l160 -16v16h32l64 -48h16l-16 16l32 32h64l16 -16v16 q118 0 128 -48l-32 -32h-16l-16 16l-16 -16h-176l-48 48l-48 -32l-64 16h-16l-16 -16l-64 16l-48 -32h-32l-32 32l-48 -16h-16zM444 505q120 0 120 100h-40l-80 -40v-60zM484 685h20l40 40h-20zM527 -276l64 48l336 -16l76 13v-63l-12 2h-160l-16 16q0 -28 -80 -32h-32 l-16 16v16l16 16h-48l-64 -48h-32zM604 1005q40 0 40 60l20 20h40l20 -20h20l-20 100l40 40l20 -60h40q0 100 40 100h20q50 0 119 -177v-4l-19 -19h-20l-20 20h-20v-40q60 0 60 -40l-20 -20h-20q-80 20 -80 80h-20l-20 -60h60l-40 -120q-60 0 -60 -80q-63 0 -160 80l20 20 v20z" />
<glyph unicode="z" horiz-adv-x="1196" d="M-12 1564l16 16h16l16 -16l16 16h80l16 -16l16 16h16l48 -32l80 32l128 -16l144 16l32 -48l-32 -32q-53 0 -112 48q0 -32 -48 -32l-48 16v-32l-64 16l-288 -16zM-11 -245l15 16h32l48 -32l32 32h96q32 0 32 -48h48q0 48 48 48l48 -32l96 32l32 -32l48 32h16l16 -16l48 16 l16 -16h16l48 16v-16l16 16h32l16 -16l16 16h112l32 -32v-32h-32l-16 16l-160 -32l-128 48q0 -48 -32 -48h-96l-32 32l-64 -32l-48 16l-80 -16l-16 16l-80 -16h-48l-32 32l-16 -16h-64zM96 125q85 280 240 280v20l-40 60l140 60l-20 20v40l40 40l20 -20l60 20v20 q-80 0 -80 60q260 239 260 280h60v40l-40 60q100 73 100 120h20l20 -20l80 40q80 -30 80 -60l-20 -60h20l40 -40q-68 -134 -160 -200l-80 40v-20l40 -60l-40 -60l20 -60q-104 0 -120 -140q-124 -104 -200 -280h-20l-20 20h-20q-56 -280 -200 -280l-40 -40q-140 84 -140 120z M96 1065l20 20v20l-20 80l60 80l20 20h40l160 -100h20q10 80 60 80h20q120 -12 120 -60v-20l-20 -20l20 -20v-40l-80 -120h-60l-80 20l-60 -20l-20 60l-80 -60l-20 20v20l-20 -20h-40q-40 0 -40 60zM276 285l140 -20v40q-60 0 -60 40l20 20v20h-20q-41 -9 -80 -100zM476 345 h40l20 60h-60v-60zM476 445h20l40 40v40l-60 -60v-20zM616 85v80q40 46 40 140h20q80 -20 80 -80h20q0 80 40 80l160 -20l60 20l80 -180q-74 -120 -160 -120l-100 60l-180 -40zM660 1548v16l80 16l16 -16l80 16h160l64 -16l64 16h64l32 -32v-16l-32 -32l-32 32h-16l-48 -32 l-16 16l-16 -16h-16l-48 16l-48 -16l-32 32l-48 -32l-32 32l-16 -16h-16l-48 32h-16l-48 -32zM816 1065q30 -80 60 -80h20l-40 80h-40zM996 -261q0 32 48 32l192 -32v-16l-32 -32h-80l-64 48l-32 -32h-32v32z" />
<glyph unicode="{" />
<glyph unicode="|" />
<glyph unicode="}" />
<glyph unicode="~" />
<glyph unicode="&#xa0;" horiz-adv-x="469" d="M-41 -260l112 16h16l16 -16l16 16h80l64 -32v-16l-32 -32h-16l-64 16l-64 -16h-32l-32 32l-16 -16h-16l-32 32v16zM-41 1531v16h16l16 -16h16l64 32l16 -16h16l96 16v-16l48 16q160 -7 160 -32l16 16h62v-64h-30l-16 16v16l-16 -16h-32l-128 32q0 -48 -32 -48l-16 48 l-48 -32l-16 16l-16 -16h-16l-64 16l-64 -16zM359 -276l32 32h16l71 -11l-1 -59l-6 6l-16 -16h-64l-32 32v16z" />
<glyph unicode="&#xa1;" />
<glyph unicode="&#xa2;" />
<glyph unicode="&#xa3;" />
<glyph unicode="&#xa4;" />
<glyph unicode="&#xa5;" />
<glyph unicode="&#xa6;" />
<glyph unicode="&#xa7;" />
<glyph unicode="&#xa8;" />
<glyph unicode="&#xa9;" />
<glyph unicode="&#xaa;" />
<glyph unicode="&#xab;" />
<glyph unicode="&#xac;" />
<glyph unicode="&#xad;" horiz-adv-x="807" d="M-12 -261l367 32q92 0 92 -32v-32h-62l-61 32l-122 -48h-153l-61 32v16zM19 1532v16l61 32h122l84 -11l32 -66l-24 13l-31 -16l-92 32h-30l-61 -32zM69 821l66 61q131 19 203 44l188 -23l79 4l30 -17q12 -57 65 -54l-27 -116l60 -34q9 -38 -144 -65l-97 15l4 -18 q-182 6 -309 23l-55 -22l-42 108l13 58l-4 18zM449 1580h303l72 -8v-52l-11 -4h-30l-31 16l-61 -32l-92 32l-61 -32l-87 15zM538 -261l61 32h214l11 -5v-63l-194 20l-31 -16h-61v32z" />
<glyph unicode="&#xae;" />
<glyph unicode="&#xaf;" />
<glyph unicode="&#xb0;" />
<glyph unicode="&#xb1;" />
<glyph unicode="&#xb2;" />
<glyph unicode="&#xb3;" />
<glyph unicode="&#xb4;" />
<glyph unicode="&#xb5;" />
<glyph unicode="&#xb6;" />
<glyph unicode="&#xb7;" />
<glyph unicode="&#xb8;" />
<glyph unicode="&#xb9;" />
<glyph unicode="&#xba;" />
<glyph unicode="&#xbb;" />
<glyph unicode="&#xbc;" />
<glyph unicode="&#xbd;" />
<glyph unicode="&#xbe;" />
<glyph unicode="&#xbf;" />
<glyph unicode="&#xc0;" />
<glyph unicode="&#xc1;" />
<glyph unicode="&#xc2;" />
<glyph unicode="&#xc3;" />
<glyph unicode="&#xc4;" />
<glyph unicode="&#xc5;" />
<glyph unicode="&#xc6;" />
<glyph unicode="&#xc7;" />
<glyph unicode="&#xc8;" />
<glyph unicode="&#xc9;" />
<glyph unicode="&#xca;" />
<glyph unicode="&#xcb;" />
<glyph unicode="&#xcc;" />
<glyph unicode="&#xcd;" />
<glyph unicode="&#xce;" />
<glyph unicode="&#xcf;" />
<glyph unicode="&#xd0;" />
<glyph unicode="&#xd1;" />
<glyph unicode="&#xd2;" />
<glyph unicode="&#xd3;" />
<glyph unicode="&#xd4;" />
<glyph unicode="&#xd5;" />
<glyph unicode="&#xd6;" />
<glyph unicode="&#xd7;" />
<glyph unicode="&#xd8;" />
<glyph unicode="&#xd9;" />
<glyph unicode="&#xda;" />
<glyph unicode="&#xdb;" />
<glyph unicode="&#xdc;" />
<glyph unicode="&#xdd;" />
<glyph unicode="&#xde;" />
<glyph unicode="&#xdf;" />
<glyph unicode="&#xe0;" />
<glyph unicode="&#xe1;" />
<glyph unicode="&#xe2;" />
<glyph unicode="&#xe3;" />
<glyph unicode="&#xe4;" />
<glyph unicode="&#xe5;" />
<glyph unicode="&#xe6;" />
<glyph unicode="&#xe7;" />
<glyph unicode="&#xe8;" />
<glyph unicode="&#xe9;" />
<glyph unicode="&#xea;" />
<glyph unicode="&#xeb;" />
<glyph unicode="&#xec;" />
<glyph unicode="&#xed;" />
<glyph unicode="&#xee;" />
<glyph unicode="&#xef;" />
<glyph unicode="&#xf0;" />
<glyph unicode="&#xf1;" />
<glyph unicode="&#xf2;" />
<glyph unicode="&#xf3;" />
<glyph unicode="&#xf4;" />
<glyph unicode="&#xf5;" />
<glyph unicode="&#xf6;" />
<glyph unicode="&#xf7;" />
<glyph unicode="&#xf8;" />
<glyph unicode="&#xf9;" />
<glyph unicode="&#xfa;" />
<glyph unicode="&#xfb;" />
<glyph unicode="&#xfc;" />
<glyph unicode="&#xfd;" />
<glyph unicode="&#xfe;" />
<glyph unicode="&#xff;" />
<glyph unicode="&#x152;" />
<glyph unicode="&#x153;" />
<glyph unicode="&#x178;" />
<glyph unicode="&#x2c6;" />
<glyph unicode="&#x2dc;" />
<glyph unicode="&#x2000;" horiz-adv-x="798" />
<glyph unicode="&#x2001;" horiz-adv-x="1597" />
<glyph unicode="&#x2002;" horiz-adv-x="798" />
<glyph unicode="&#x2003;" horiz-adv-x="1597" />
<glyph unicode="&#x2004;" horiz-adv-x="532" />
<glyph unicode="&#x2005;" horiz-adv-x="399" />
<glyph unicode="&#x2006;" horiz-adv-x="266" />
<glyph unicode="&#x2007;" horiz-adv-x="266" />
<glyph unicode="&#x2008;" horiz-adv-x="199" />
<glyph unicode="&#x2009;" horiz-adv-x="319" />
<glyph unicode="&#x200a;" horiz-adv-x="88" />
<glyph unicode="&#x2010;" horiz-adv-x="807" d="M-12 -261l367 32q92 0 92 -32v-32h-62l-61 32l-122 -48h-153l-61 32v16zM19 1532v16l61 32h122l84 -11l32 -66l-24 13l-31 -16l-92 32h-30l-61 -32zM69 821l66 61q131 19 203 44l188 -23l79 4l30 -17q12 -57 65 -54l-27 -116l60 -34q9 -38 -144 -65l-97 15l4 -18 q-182 6 -309 23l-55 -22l-42 108l13 58l-4 18zM449 1580h303l72 -8v-52l-11 -4h-30l-31 16l-61 -32l-92 32l-61 -32l-87 15zM538 -261l61 32h214l11 -5v-63l-194 20l-31 -16h-61v32z" />
<glyph unicode="&#x2011;" horiz-adv-x="807" d="M-12 -261l367 32q92 0 92 -32v-32h-62l-61 32l-122 -48h-153l-61 32v16zM19 1532v16l61 32h122l84 -11l32 -66l-24 13l-31 -16l-92 32h-30l-61 -32zM69 821l66 61q131 19 203 44l188 -23l79 4l30 -17q12 -57 65 -54l-27 -116l60 -34q9 -38 -144 -65l-97 15l4 -18 q-182 6 -309 23l-55 -22l-42 108l13 58l-4 18zM449 1580h303l72 -8v-52l-11 -4h-30l-31 16l-61 -32l-92 32l-61 -32l-87 15zM538 -261l61 32h214l11 -5v-63l-194 20l-31 -16h-61v32z" />
<glyph unicode="&#x2012;" horiz-adv-x="807" d="M-12 -261l367 32q92 0 92 -32v-32h-62l-61 32l-122 -48h-153l-61 32v16zM19 1532v16l61 32h122l84 -11l32 -66l-24 13l-31 -16l-92 32h-30l-61 -32zM69 821l66 61q131 19 203 44l188 -23l79 4l30 -17q12 -57 65 -54l-27 -116l60 -34q9 -38 -144 -65l-97 15l4 -18 q-182 6 -309 23l-55 -22l-42 108l13 58l-4 18zM449 1580h303l72 -8v-52l-11 -4h-30l-31 16l-61 -32l-92 32l-61 -32l-87 15zM538 -261l61 32h214l11 -5v-63l-194 20l-31 -16h-61v32z" />
<glyph unicode="&#x2013;" />
<glyph unicode="&#x2014;" />
<glyph unicode="&#x2018;" />
<glyph unicode="&#x2019;" />
<glyph unicode="&#x201a;" />
<glyph unicode="&#x201c;" />
<glyph unicode="&#x201d;" />
<glyph unicode="&#x201e;" />
<glyph unicode="&#x2022;" />
<glyph unicode="&#x2026;" />
<glyph unicode="&#x202f;" horiz-adv-x="319" />
<glyph unicode="&#x2039;" />
<glyph unicode="&#x203a;" />
<glyph unicode="&#x205f;" horiz-adv-x="399" />
<glyph unicode="&#x20ac;" />
<glyph unicode="&#x2122;" />
<glyph unicode="&#x25fc;" horiz-adv-x="1565" d="M0 0v1565h1565v-1565h-1565z" />
</font>
</defs>
</svg>
