<?xml version="1.0" standalone="no"?>
<!DOCTYPE svg PUBLIC "-//W3C//DTD SVG 1.1//EN" "http://www.w3.org/Graphics/SVG/1.1/DTD/svg11.dtd" >
<svg>
<metadata>
Created by FontForge 20090914 at Wed Jan 20 05:41:01 2016
 By www-data
(C)2001 Tepid Monkey Fonts-www.fontframe.com/tepidmonkey
</metadata>
<defs>
<font id="Medrano" horiz-adv-x="636" >
  <font-face 
    font-family="Medrano"
    font-weight="400"
    font-stretch="normal"
    units-per-em="1000"
    panose-1="0 0 4 0 0 0 0 0 0 0"
    ascent="800"
    descent="-200"
    x-height="527.003"
    cap-height="712.001"
    bbox="-89 -240.003 989 1048"
    underline-thickness="20"
    underline-position="-123"
    unicode-range="U+0020-U+F002"
  />
<missing-glyph horiz-adv-x="500" 
d="M63 0v800h375v-800h-375zM125 63h250v675h-250v-675z" />
    <glyph glyph-name=".notdef" horiz-adv-x="500" 
d="M63 0v800h375v-800h-375zM125 63h250v675h-250v-675z" />
    <glyph glyph-name="space" unicode=" " horiz-adv-x="278" 
 />
    <glyph glyph-name="exclam" unicode="!" horiz-adv-x="250" 
d="M205 641c0 -50.667 -4.33203 -142.666 -12.999 -275.999c-2.66699 -40.667 -5.33398 -67.334 -8.00098 -80.001c-6 -36 -16.333 -58.333 -31 -67c-4.66699 -3.33301 -10.667 -5 -18 -5c-18.667 0 -34.167 7.5 -46.5 22.5s-18.5 32.167 -18.5 51.5c0 26 2 59 6 99
c5.33301 57.333 8.33301 90.333 9 99c1.33301 25.333 3 63.333 5 114l2 56c2 22 8 39 18 51c14 16.667 29 25 45 25c33.333 0 50 -30 50 -90zM183.001 66.001c0 -18 -5.66602 -33.333 -16.999 -46s-26 -19 -44 -19c-22.667 0 -40.334 9 -53.001 27
c-10.667 16 -16 35.667 -16 59c0 16 6 30.667 18 44s26 20 42 20c22 0 39.667 -8.66699 53 -26c11.333 -16 17 -35.667 17 -59z" />
    <glyph glyph-name="quotedbl" unicode="&#x22;" horiz-adv-x="410" 
d="M357 711c0 -47.333 -4.66797 -115.335 -14.001 -204.002c-0.666992 -11.333 -3 -28.666 -7 -51.999c-7.33301 -28 -22 -42 -44 -42c-14 0 -27 3.33301 -39 10c-14 8 -21 18.333 -21 31c0 20.667 2 46 6 76l10 76c0.666992 16.667 2.33398 42 5.00098 76
c0 8.66699 0.666992 21.334 2 38.001c1.33301 13.333 7.83301 23.833 19.5 31.5s24.5 11.5 38.5 11.5c29.333 0 44 -17.333 44 -52zM167.999 710.998c0 -47.333 -4.66699 -115.335 -14 -204.002c-0.666992 -11.333 -3 -28.666 -7 -51.999c-8 -28 -22.667 -42 -44 -42
c-14 0 -27 3.33301 -39 10c-14 8 -21 18.333 -21 31c0 20.667 1.66699 46 5 76l10 76l6 76c0 8.66699 0.333008 21.334 1 38.001c2 13.333 8.66699 23.833 20 31.5s24 11.5 38 11.5c30 0 45 -17.333 45 -52z" />
    <glyph glyph-name="numbersign" unicode="#" horiz-adv-x="606" 
d="M570 456c0 -32 -26.0039 -52.666 -78.0039 -61.999l-40 -120c59.333 -6.66699 94 -14 104 -22c2.66699 -2 4 -4.66699 4 -8c0 -6 -2 -13 -6 -21c-14 -28 -56.333 -44 -127 -48l-6 -18l-21 -72c-9.33301 -28.667 -21.666 -50 -36.999 -64c-20.667 -20 -38.667 -30 -54 -30
c-16.667 0 -25 11 -25 33c0 16.667 4.33301 41.667 13 75l21 78c-29.333 0 -73.666 1.33301 -132.999 4c-2 -6.66699 -5 -15.667 -9 -27l-21 -72c-8.66699 -28 -20.667 -49.333 -36 -64c-21.333 -19.333 -39.333 -29 -54 -29c-16.667 0 -25 11 -25 33
c0 14 7.33301 49 22 105l15 62c-32.667 13.333 -49 30 -49 50c0 24.667 25 39.334 75 44.001l34 112c-31.333 1.33301 -54.333 7 -69 17c-20 13.333 -30 26.666 -30 39.999c0 32 44 47 132 45c20 59.333 33.333 97.333 40 114c24 54 47.333 81 70 81c28 0 42 -19 42 -57
c0 -8 -13.333 -54 -40 -138c48.667 -1.33301 92 -3 130 -5c20.667 63.333 34.334 102.666 41.001 117.999c24.667 56.667 48.334 85 71.001 85c28.667 0 43 -19 43 -57c0 -9.33301 -15.667 -62.333 -47 -159c33.333 -7.33301 50 -15 50 -23zM377.996 387.001l-130 4
l-36 -107c51.333 0 96 -0.666992 134 -2z" />
    <glyph glyph-name="dollar" unicode="$" horiz-adv-x="582" 
d="M543 249c0 -52.667 -33.666 -102 -100.999 -148c-47.333 -32.667 -87.333 -51 -120 -55c-6.66699 -36 -17.334 -54 -32.001 -54c-14 0 -22.667 18 -26 54c-32.667 2.66699 -68.834 15.5 -108.501 38.5s-69.5 48.167 -89.5 75.5c-16.667 22 -25 39 -25 51
c0 32 15 48 45 48c22.667 0 37.834 -6.66699 45.501 -20l22.5 -40c34 -36.667 69.667 -56.667 107 -60c0.666992 60 2 134 4 222c-13.333 3.33301 -27.166 7.5 -41.499 12.5l-44 16c-15 5.66699 -28.167 14.167 -39.5 25.5c-27.333 26.667 -41 58.667 -41 96
s20.667 67 62 89c33.333 17.333 71 27 113 29c4.66699 55.333 14 83 28 83c11.333 0 20.666 -12 27.999 -36c5.33301 -17.333 8 -34 8 -50c45.333 -5.33301 81.333 -17 108 -35c20 -14 30 -26.333 30 -37s-7.5 -21 -22.5 -31s-28.5 -15 -40.5 -15c-10 0 -21 5.33301 -33 16
s-26.333 17 -43 19c-0.666992 -28.667 -1.66699 -64 -3 -106c19.333 -6 48 -16.667 86 -32c40 -19.333 69 -39.333 87 -60c24 -26 36 -58 36 -96zM269.001 543c-32 -7.33301 -48 -24.667 -48 -52c0 -17.333 15.333 -29.333 46 -36zM436.001 257.999
c0 24.667 -12.332 44 -36.999 58l-68 26c-0.666992 -28.667 -2.33398 -95 -5.00098 -199c26 8 50 22.333 72 43c25.333 23.333 38 47.333 38 72z" />
    <glyph glyph-name="percent" unicode="%" horiz-adv-x="650" 
d="M291 561c0 -34 -11.999 -63.167 -35.999 -87.5s-53 -36.5 -87 -36.5c-36 0 -65.333 13.667 -88 41s-34 59.333 -34 96c0 36 11.833 66.333 35.5 91s53.167 37 88.5 37c47.333 0 82.666 -21.333 105.999 -64c10 -18 15 -43.667 15 -77zM219.001 563
c0 16 -4.33203 30.666 -12.999 43.999c-9.33301 16 -21.666 24 -36.999 24c-32.667 0 -49 -19.333 -49 -58c0 -15.333 5.16699 -29.666 15.5 -42.999s23.166 -20 38.499 -20c13.333 0 24.166 5.5 32.499 16.5s12.5 23.167 12.5 36.5zM559.002 674.999
c0 -6.66699 -1.33203 -15.334 -3.99902 -26.001c-2.66699 -12.667 -33.334 -67.667 -92.001 -165l-107 -179l-127 -225c-15.333 -25.333 -32.333 -45 -51 -59c-26.667 -20 -48 -30 -64 -30c-14 0 -21 6.33301 -21 19c0 11.333 5.33301 28.333 16 51
c1.33301 4.66699 13.666 28.334 36.999 71.001c65.333 122.667 138.333 251.667 219 387c14 24.667 36.333 60.667 67 108c38.667 55.333 70.334 83 95.001 83c21.333 0 32 -11.667 32 -35zM612.003 124.999c0 -34 -12.167 -63.333 -36.5 -88s-53.5 -37 -87.5 -37
c-35.333 0 -65 14.333 -89 43c-22 26.667 -33 58.334 -33 95.001c0 35.333 11.833 65.5 35.5 90.5s53.5 37.5 89.5 37.5c47.333 0 82.333 -21.333 105 -64c10.667 -18.667 16 -44.334 16 -77.001zM539.003 126.999c0 16 -4 30.666 -12 43.999c-10 15.333 -22.333 23 -37 23
c-33.333 0 -50 -19 -50 -57c0 -15.333 5.33301 -29.666 16 -42.999s23.334 -20 38.001 -20c13.333 0 24.166 5.33301 32.499 16s12.5 23 12.5 37z" />
    <glyph glyph-name="ampersand" unicode="&#x26;" horiz-adv-x="627" 
d="M610 330c0 -16.667 -10.333 -29.3311 -31 -37.998c-16 -6 -33.667 -9 -53 -9c-9.33301 0 -17.333 0.666992 -24 2l-2 2v2c-3.33301 3.33301 -15.333 5.33301 -36 6l47 -53c11.333 -17.333 17 -40.333 17 -69c0 -25.333 -3.66699 -46.333 -11 -63
c-17.333 -41.333 -50.333 -73 -99 -95c-42 -18.667 -88 -28 -138 -28c-63.333 0 -116.666 18.667 -159.999 56c-46.667 39.333 -70 90 -70 152c0 44 6.66699 76 20 96c5.33301 8 15.166 17.167 29.499 27.5s24.166 18.833 29.499 25.5c0 1.33301 -5.33301 5 -16 11
c-20.667 11.333 -40 34.666 -58 69.999c-14.667 28 -22 62 -22 102c0 82.667 42 134.667 126 156c39.333 10.667 75 16 107 16c111.333 0 167 -23.333 167 -70c0 -10.667 -4.16699 -20 -12.5 -28s-17.833 -12 -28.5 -12c-9.33301 0 -19 3.66699 -29 11
c-26 19.333 -56 29 -90 29s-64 -8.33301 -90 -25c-30.667 -19.333 -46 -44.666 -46 -75.999c0 -40 8.66699 -70.333 26 -91c19.333 -23.333 41.333 -39 66 -47c14 -4.66699 32.667 -7.33398 56 -8.00098c33.333 -1.33301 52.666 -2.33301 57.999 -3
c16.667 -2.66699 41.834 -5.33398 75.501 -8.00098s66.834 -5 99.501 -7c50.667 -4 80 -11.333 88 -22c2.66699 -3.33301 4 -7.33301 4 -12zM419 160.003c0 66 -26 110.667 -78 134c-22 9.33301 -42 14 -60 14c-34 0 -64 -8 -90 -24c-30.667 -19.333 -46 -45 -46 -77
c0 -40 8.33301 -70.333 25 -91c30 -36 70.667 -54 122 -54c48.667 0 85.667 18.333 111 55c10.667 14.667 16 29 16 43z" />
    <glyph glyph-name="quotesingle" unicode="'" horiz-adv-x="220" 
d="M168 711c0 -47.333 -4.66699 -115.335 -14 -204.002c-0.666992 -11.333 -3 -28.666 -7 -51.999c-8 -28 -22.667 -42 -44 -42c-14 0 -27 3.33301 -39 10c-14 8 -21 18.333 -21 31c0 20.667 1.66699 46 5 76l10 76l6 76c0 8.66699 0.333008 21.334 1 38.001
c2 13.333 8.66699 23.833 20 31.5s24 11.5 38 11.5c30 0 45 -17.333 45 -52z" />
    <glyph glyph-name="parenleft" unicode="(" horiz-adv-x="416" 
d="M410 -119c0 -8 -3.00098 -18.6699 -9.00098 -32.0029c-4.66699 -9.33301 -12 -14.666 -22 -15.999c-2.66699 -0.666992 -6 -1 -10 -1c-53.333 0 -108.666 23.667 -165.999 71c-28.667 24 -59 63.333 -91 118c-28.667 50 -48.334 96.667 -59.001 140
c-10.667 41.333 -16 88.666 -16 141.999c0 132.667 38 240 114 322c12.667 14.667 22.334 25 29.001 31c11.333 8.66699 23.333 16 36 22c32 14.667 71 22 117 22c16.667 0 29 -2.33301 37 -7c25.333 -14 38 -29.667 38 -47c0 -8.66699 -3.33301 -19.667 -10 -33
c-4 -8.66699 -11 -14 -21 -16c-8 0.666992 -15.667 1 -23 1c-66.667 0 -119.667 -39 -159 -117c-32 -63.333 -48 -132 -48 -206c0 -33.333 5.66699 -70.333 17 -111c12 -43.333 24 -76 36 -98c16.667 -31.333 39.667 -56.666 69 -75.999
c20.667 -13.333 34 -21.666 40 -24.999c14.667 -8 29 -12.667 43 -14c38.667 -25.333 58 -48.666 58 -69.999z" />
    <glyph glyph-name="parenright" unicode=")" horiz-adv-x="470" 
d="M421 239c0 -132.667 -37.667 -239.998 -113 -321.998c-13.333 -14.667 -23.333 -25 -30 -31c-10.667 -8.66699 -22.667 -16 -36 -22c-32 -14.667 -71 -22 -117 -22c-16.667 0 -29 2.33301 -37 7c-24.667 14 -37 29.667 -37 47c0 8.66699 3 19.667 9 33
c4 8.66699 11 14 21 16c8 -0.666992 15.667 -1 23 -1c66.667 0 120 39 160 117c32 63.333 48 132 48 206c0 33.333 -6 70.333 -18 111c-12 43.333 -24 76 -36 98c-16.667 31.333 -39.667 56.666 -69 75.999l-39 25c-15.333 8 -30 12.667 -44 14
c-38.667 25.333 -58 48.666 -58 69.999c0 8 3 18.667 9 32c4.66699 9.33301 12 14.666 22 15.999c2.66699 0.666992 6 1 10 1c54 0 109.333 -23.667 166 -71c29.333 -24 59.666 -63.333 90.999 -118c28.667 -50 48.334 -96.167 59.001 -138.5s16 -90.166 16 -143.499z" />
    <glyph glyph-name="asterisk" unicode="*" horiz-adv-x="478" 
d="M444 389c0 -17.333 -11.6709 -26 -35.0039 -26c-12.667 0 -24.667 3.66699 -36 11c-18.667 12 -52 36.667 -100 74c-3.33301 -60 -5 -90.333 -5 -91c-5.33301 -46.667 -16 -70 -32 -70c-12.667 0 -22.667 5.66699 -30 17s-11 23.666 -11 36.999c0 24.667 1 54 3 88
c-57.333 -44 -94.666 -66 -111.999 -66c-23.333 0 -35 8.66699 -35 26c0 12.667 19.333 34.667 58 66c1.33301 1.33301 27.333 21 78 59l-95 68c-19.333 14.667 -29 31.334 -29 50.001c0 17.333 8.33301 26 25 26c14.667 0 54.334 -23.333 119.001 -70
c0 18 0.333008 35 1 51l2 46c0.666992 18.667 4.33398 32.667 11.001 42c9.33301 13.333 19 20 29 20c20.667 0 31 -23 31 -69c0 -30 -0.666992 -62 -2 -96c70.667 50.667 113.334 76 128.001 76c16.667 0 25 -8.66699 25 -26c0 -16.667 -8.33301 -32 -25 -46
c-14.667 -11.333 -29.667 -22.333 -45 -33c-12 -9.33301 -30 -22.333 -54 -39c50.667 -38 76.667 -57.667 78 -59c38.667 -31.333 58 -53.333 58 -66z" />
    <glyph glyph-name="plus" unicode="+" horiz-adv-x="591" 
d="M563 288c0 -28.667 -15.001 -49.334 -45.001 -62.001c-8.66699 -2.66699 -53 -4 -133 -4h-20v-81c0 -78 -16.333 -117 -49 -117c-29.333 0 -50 15.333 -62 46c-3.33301 8 -5 52.333 -5 133v19c-56.667 -1.33301 -87.667 -2 -93 -2s-13.333 -0.333008 -24 -1
s-18.667 -1 -24 -1c-20.667 0 -37.334 4.66699 -50.001 14c-18.667 14 -28 29.667 -28 47c0 6.66699 1.66699 13.334 5 20.001c6 13.333 21 22 45 26c6 1.33301 25.167 3.16602 57.5 5.49902s69.833 3.83301 112.5 4.5c-1.33301 74 -2 106 -2 96
c0 5.33301 -0.333008 13.333 -1 24s-1 19 -1 25c0 20.667 4.33301 37.334 13 50.001c14.667 18.667 30.667 28 48 28c6.66699 0 13.334 -1.66699 20.001 -5c12.667 -6 21.334 -21 26.001 -45c1.33301 -6 3 -24.667 5 -56c2 -34 3.66699 -72.333 5 -115l83 1
c78 0 117 -16.667 117 -50z" />
    <glyph glyph-name="comma" unicode="," horiz-adv-x="260" 
d="M214 127c0 -6 -19.3369 -58.667 -58.0039 -158c-5.33301 -15.333 -13.666 -38 -24.999 -68l-12.5 -35c-4.33301 -12 -11.666 -20.667 -21.999 -26s-20.833 -8 -31.5 -8c-27.333 0 -41 12 -41 36c0 23.333 24.667 97.333 74 222c10.667 26 18.334 43.333 23.001 52
c12.667 20.667 27.334 31 44.001 31c10.667 0 21.5 -5 32.5 -15s16.5 -20.333 16.5 -31z" />
    <glyph glyph-name="hyphen" unicode="-" horiz-adv-x="524" 
d="M466 318c0 -18 -8.66797 -31.334 -26.001 -40.001c-6.66699 -3.33301 -23.334 -8.66602 -50.001 -15.999c-55.333 -14.667 -128.666 -30 -219.999 -46c-33.333 -6 -55.666 -9 -66.999 -9c-40 0 -60 17.333 -60 52c0 21.333 9 38.666 27 51.999
c4.66699 3.33301 70.334 16.333 197.001 39c18.667 4 47 9.66699 85 17l27 7c11.333 2.66699 20.666 4 27.999 4c15.333 0 29 -6.16699 41 -18.5s18 -26.166 18 -41.499z" />
    <glyph glyph-name="hyphen" unicode="&#x2010;" horiz-adv-x="524" 
d="M466 318c0 -18 -8.66797 -31.334 -26.001 -40.001c-6.66699 -3.33301 -23.334 -8.66602 -50.001 -15.999c-55.333 -14.667 -128.666 -30 -219.999 -46c-33.333 -6 -55.666 -9 -66.999 -9c-40 0 -60 17.333 -60 52c0 21.333 9 38.666 27 51.999
c4.66699 3.33301 70.334 16.333 197.001 39c18.667 4 47 9.66699 85 17l27 7c11.333 2.66699 20.666 4 27.999 4c15.333 0 29 -6.16699 41 -18.5s18 -26.166 18 -41.499z" />
    <glyph glyph-name="period" unicode="." horiz-adv-x="254" 
d="M198 50c0 -16 -6 -30.6689 -18 -44.002s-26 -20 -42 -20c-22 0 -39.333 8.33301 -52 25s-19 36.334 -19 59.001c0 18.667 5.83301 34.334 17.5 47.001s26.5 19 44.5 19c22 0 39 -8.5 51 -25.5s18 -37.167 18 -60.5z" />
    <glyph glyph-name="slash" unicode="/" horiz-adv-x="406" 
d="M379 645c0 -12 -17.334 -65.999 -52.001 -161.999l-65 -178c-12.667 -34.667 -29.667 -89.334 -51 -164.001c-20.667 -72 -37.667 -126.667 -51 -164c-8.66699 -24.667 -21 -44.334 -37 -59.001c-22 -20.667 -41.667 -31 -59 -31c-21.333 0 -32 13 -32 39
c0 16 8.33301 52 25 108c18.667 66 48.334 165.333 89.001 298l66 188c8 24.667 21.667 60.334 41 107.001c26 56.667 51.667 85 77 85c32.667 0 49 -22.333 49 -67z" />
    <glyph glyph-name="zero" unicode="0" horiz-adv-x="592" 
d="M544 312c0 -120.667 -40.667 -212.001 -122 -274.001c-41.333 -31.333 -85.666 -47 -132.999 -47c-62 0 -115.667 28.333 -161 85c-24 30.667 -44.333 72.667 -61 126c-14.667 48.667 -22 94.334 -22 137.001c0 40.667 6.66699 84.334 20 131.001
c18 62 45.667 109.667 83 143c42 37.333 89.667 55.666 143 54.999h4c33.333 0 61.166 -5 83.499 -15s45.833 -27 70.5 -51c27.333 -26.667 49 -58 65 -94c20 -46 30 -111.333 30 -196zM449 302.999c0 28 -3.66895 58.668 -11.002 92.001
c-8.66699 36.667 -19.334 65.667 -32.001 87c-11.333 16.667 -25.666 31.667 -42.999 45c-26 18.667 -48.667 28 -68 28c-16 0 -35 -5.66699 -57 -17c-62 -32 -93 -91.667 -93 -179c0 -38.667 2 -66.667 6 -84c6.66699 -28 19.334 -56.667 38.001 -86
c20.667 -32.667 42.334 -54.334 65.001 -65.001c14 -6.66699 30.667 -10 50 -10c43.333 0 79 21.333 107 64c25.333 38 38 79.667 38 125z" />
    <glyph glyph-name="one" unicode="1" horiz-adv-x="481" 
d="M433 593c0 -38.667 -2 -87 -6 -145c-4 -48 -7.66699 -96.333 -11 -145c-0.666992 -32 -2.66699 -80 -6 -144l-2 -71c-1.33301 -28 -8 -49.667 -20 -65c-16.667 -20.667 -33.667 -31 -51 -31c-38 0 -57 37.667 -57 113c0 140 6 291 18 453l-66 -59l-55 -51l-27 -26
c-11.333 -10 -22.333 -15 -33 -15c-31.333 0 -47 12 -47 36c0 12 13 31.333 39 58c36 36.667 84 81.667 144 135c38 34 65 51 81 51h6c4.66699 3.33301 11 5 19 5c37.333 0 61.333 -23.667 72 -71c1.33301 -4.66699 2 -14 2 -28z" />
    <glyph glyph-name="two" unicode="2" horiz-adv-x="584" 
d="M552 44c0 -20.667 -10.335 -34.6699 -31.002 -42.0029c-10 -3.33301 -28.667 -5.66602 -56 -6.99902c-22 -0.666992 -47 -1 -75 -1c-21.333 0 -53.166 0.333008 -95.499 1s-74.166 1 -95.499 1c-9.33301 0 -23 -2.16699 -41 -6.5s-31.667 -6.5 -41 -6.5
c-31.333 0 -47 19 -47 57c0 33.333 25.667 77.666 77 132.999l121 117c33.333 32 58.333 59.333 75 82l42 53c17.333 24.667 26 43.667 26 57c0 4.66699 -1 9.33398 -3 14.001c-29.333 56.667 -73.333 85 -132 85c-33.333 0 -70.666 -13.667 -111.999 -41
c-9.33301 -9.33301 -25.333 -20.333 -48 -33c-8 -2 -15.333 -3 -22 -3c-14.667 0 -28.5 5.66699 -41.5 17s-19.5 24.333 -19.5 39c0 12 6 26.333 18 43c9.33301 12.667 21 22.667 35 30s28 14 42 20c52.667 24.667 115 37 187 37c28 0 51 -3.33301 69 -10
c43.333 -16.667 83 -51 119 -103c19.333 -29.333 29 -59.666 29 -90.999c0 -14 -2.33301 -27.333 -7 -40c-16 -42 -37.333 -78 -64 -108l-85 -88c-13.333 -15.333 -35.833 -37.5 -67.5 -66.5s-54.834 -52.167 -69.501 -69.5c50 -6 110.667 -9 182 -9l66 -1
c18 0 33.333 -5.66699 46 -17s19 -25.666 19 -42.999z" />
    <glyph glyph-name="three" unicode="3" horiz-adv-x="558" 
d="M509 514c0 -48 -18.667 -90.6641 -56 -127.997c-9.33301 -8.66699 -28.666 -18 -57.999 -28c-21.333 -6.66699 -43 -13 -65 -19l65 -20c28.667 -9.33301 47.667 -18.333 57 -27c37.333 -36.667 56 -79.334 56 -128.001c0 -63.333 -32.667 -115 -98 -155
c-28 -17.333 -68.333 -26 -121 -26c-38 0 -75.667 4 -113 12c-49.333 10 -82.666 24.667 -99.999 44c-7.33301 8.66699 -11 17 -11 25c0 12.667 7.66699 23 23 31c12.667 6.66699 26.334 10 41.001 10c12.667 0 32.667 -6.83301 60 -20.5s52.333 -20.5 75 -20.5
c30.667 0 57.167 10.833 79.5 32.5s33.5 48.167 33.5 79.5c0 12 -3.33301 24.667 -10 38c-5.33301 11.333 -26.666 25.666 -63.999 42.999l-77 34c-8.66699 3.33301 -16.834 6.83301 -24.501 10.5s-15.834 11 -24.501 22s-13 17.833 -13 20.5c0 3.33301 0.666992 8 2 14
c4 12 11.5 20.5 22.5 25.5s22.167 9.5 33.5 13.5c20 9.33301 33.667 13.666 41 12.999c30.667 12 49.667 19.667 57 23c27.333 12 43.333 22.333 48 31c6.66699 13.333 10 26 10 38c0 31.333 -11.167 57.833 -33.5 79.5s-49.166 32.5 -80.499 32.5
c-22 0 -46.667 -6.83301 -74 -20.5s-47.333 -20.5 -60 -20.5c-14.667 0 -28.334 3.33301 -41.001 10c-15.333 8 -23 18.333 -23 31c0 8 3.66699 16.333 11 25c17.333 19.333 50.666 34 99.999 44c37.333 8 74.666 12 111.999 12c53.333 0 94 -8.66699 122 -26
c65.333 -40 98 -91.667 98 -155z" />
    <glyph glyph-name="four" unicode="4" horiz-adv-x="608" 
d="M563 235c0 -7.33301 -1.66113 -14.3311 -4.99414 -20.998c-5.33301 -14 -15 -22.667 -29 -26c-3.33301 -0.666992 -17 -1.33398 -41 -2.00098c-0.666992 -5.33301 -1.33398 -14.666 -2.00098 -27.999l-2 -70c-1.33301 -29.333 -7 -51.333 -17 -66
c-14.667 -20 -29.334 -30 -44.001 -30c-32.667 0 -49 43.333 -49 130v31c0.666992 15.333 1 26 1 32c-20.667 0 -55.334 0.666992 -104.001 2c-44.667 0.666992 -79.334 1 -104.001 1c-7.33301 0 -18.5 -1 -33.5 -3s-26.167 -3 -33.5 -3c-18 0 -31.667 4.33301 -41 13
c-12 10.667 -18 20 -18 28c0 29.333 51.333 102.666 154 219.999l95 109c36 42 65.667 80.333 89 115c5.33301 8 17 15.333 35 22c8 15.333 17.333 23 28 23c13.333 0 28.666 -9 45.999 -27c8.66699 -9.33301 12.667 -17.333 12 -24c4.66699 -12.667 7 -28.334 7 -47.001
c0 -16 -1.66699 -58 -5 -126c-2.66699 -43.333 -6.33398 -108.333 -11.001 -195c-6 0 2.33301 0 25 0c11.333 0 22 -6.66699 32 -20s15 -26 15 -38zM387.006 502.002l-97 -103c-46 -50 -73 -85.333 -81 -106c6.66699 -0.666992 14 -1 22 -1c16 0 38 0.333008 66 1h66h15z
" />
    <glyph glyph-name="five" unicode="5" horiz-adv-x="563" 
d="M544 628c0 -16.667 -6.99902 -32.002 -20.999 -46.002c-8.66699 -8 -20.334 -12.667 -35.001 -14c4 0 -8.66699 0 -38 0c-54.667 0 -123.334 -2 -206.001 -6c-16 0 -40 -1.33301 -72 -4c1.33301 -5.33301 2 -12 2 -20c0 -12 -1.16699 -29.667 -3.5 -53
s-3.5 -40.666 -3.5 -51.999c0 -13.333 1.33301 -23 4 -29c6 6 32 9 78 9c84.667 0 131.667 -4.83301 141 -14.5l40 -41.5c38.667 -36.667 67.667 -80.334 87 -131.001c5.33301 -12.667 8 -26 8 -40c0 -31.333 -10 -61.666 -30 -90.999c-36 -52 -75.667 -86.333 -119 -103
c-17.333 -6.66699 -40 -10 -68 -10c-72.667 0 -135.334 12.333 -188.001 37c-14 6 -28 12.667 -42 20s-25.667 17.333 -35 30c-12 16.667 -18 31 -18 43c0 14.667 6.5 27.667 19.5 39s27.167 17 42.5 17c6.66699 0 13.834 -1 21.501 -3s15.834 -7 24.501 -15
c13.333 -11.333 21 -17.333 23 -18c41.333 -28 79.666 -42 114.999 -42c57.333 0 100.333 28.667 129 86c2 4 3 8.33301 3 13c0 24 -22.333 61 -67 111c-10 10.667 -53 16 -129 16c-70 0 -118.333 -2.66699 -145 -8c-4.66699 22.667 -7 67 -7 133
c0 90 2.66699 156.333 8 199c2 16.667 7.33301 29 16 37s18.667 12 30 12c9.33301 0 23 -2.16699 41 -6.5s31.667 -6.5 41 -6.5c21.333 0 53.333 0.333008 96 1s74.334 1 95.001 1c28.667 0 53.667 -0.333008 75 -1c28 -1.33301 46.667 -3.66602 56 -6.99902
c20.667 -7.33301 31 -21.333 31 -42z" />
    <glyph glyph-name="six" unicode="6" horiz-adv-x="591" 
d="M547 220c0 -61.333 -19 -112.001 -57 -152.001c-50.667 -54 -117 -81 -199 -81c-75.333 0 -136 25.333 -182 76c-43.333 48.667 -65 111.334 -65 188.001v9c0 47.333 2.33301 82 7 104c2.66699 14.667 4.66699 40 6 76c1.33301 32 4.33301 57 9 75
c14.667 53.333 44 99.333 88 138c12.667 12 26.334 20.667 41.001 26c18.667 7.33301 46 11 82 11c14.667 0 28.667 -0.666992 42 -2c38 -4 71.667 -13 101 -27c22.667 -10 35.667 -16.333 39 -19c11.333 -7.33301 21.333 -18 30 -32c6.66699 -10.667 10 -20.667 10 -30
c0 -14 -6.16699 -26.167 -18.5 -36.5s-25.5 -15.5 -39.5 -15.5c-12.667 0 -33 10.167 -61 30.5s-54.333 30.5 -79 30.5c-32.667 0 -60 -14.667 -82 -44c-18 -24 -30.333 -54 -37 -90c35.333 14.667 72.666 22 111.999 22c45.333 0 87.833 -9.5 127.5 -28.5
s71.167 -46.833 94.5 -83.5c20.667 -32 31 -80.333 31 -145zM443 202.999c0 61.333 -14.166 107.668 -42.499 139.001s-63.833 47 -106.5 47c-30 0 -58.333 -9 -85 -27c-28.667 -19.333 -46.334 -43 -53.001 -71c-1.33301 -8 -2 -17.667 -2 -29
c0 -50.667 9 -88.334 27 -113.001c32.667 -45.333 74 -68 124 -68c54 0 94.333 22.667 121 68c11.333 18.667 17 36.667 17 54z" />
    <glyph glyph-name="seven" unicode="7" horiz-adv-x="531" 
d="M512 665c0 -17.333 -13.0029 -53.335 -39.0029 -108.002l-57 -110c-12.667 -25.333 -36.5 -61.666 -71.5 -108.999s-59.167 -84.666 -72.5 -111.999c-14 -30 -35.333 -70.667 -64 -122c-36.667 -64.667 -59.667 -99.334 -69 -104.001
c-25.333 -12.667 -40.333 -19 -45 -19c-5.33301 0 -12.666 4.66699 -21.999 14c-12.667 12 -19 31 -19 57c0 30.667 9.33301 63.334 28 98.001c8 15.333 26.667 44 56 86c20 28 36.333 53.333 49 76c43.333 76 99 164.667 167 266c-9.33301 -1.33301 -18.333 -2 -27 -2
c-7.33301 0 -18.166 0.5 -32.499 1.5s-25.166 1.5 -32.499 1.5c-12 0 -29.667 0.5 -53 1.5s-41 1.5 -53 1.5c-6 0 -15.167 -0.5 -27.5 -1.5s-21.5 -1.5 -27.5 -1.5c-32.667 0 -51.667 6 -57 18c-4 8 -6 18.667 -6 32c0 48 28.667 72 86 72c1.33301 0 16.666 -1 45.999 -3
c22.667 -1.33301 57.334 -3 104.001 -5h89c12 0 30 -0.333008 54 -1h53c28.667 0 43 -9 43 -27z" />
    <glyph glyph-name="eight" unicode="8" horiz-adv-x="588" 
d="M539 173c0 -25.333 -3.33301 -46.3311 -10 -62.998c-18 -40.667 -50.667 -72 -98 -94c-40.667 -19.333 -85.667 -29 -135 -29c-66 0 -121 18.333 -165 55c-46 39.333 -69 91.333 -69 156c0 69.333 26 118 78 146c-63.333 40.667 -95 99 -95 175
c0 41.333 6.33301 72.333 19 93c22.667 35.333 58 59 106 71c42 10.667 80 16 114 16c40 0 78.333 -7 115 -21c40.667 -16 72 -38.667 94 -68c19.333 -26 29 -64.333 29 -115c0 -64.667 -29 -113.334 -87 -146.001c40 -20.667 67.333 -43.834 82 -69.501
s22 -61.167 22 -106.5zM423 481.002c0 48.667 -13.3301 85.499 -39.9971 110.499s-60.334 37.5 -101.001 37.5c-33.333 0 -63 -8.66699 -89 -26c-29.333 -19.333 -44 -44.666 -44 -75.999c0 -40 8.33301 -70 25 -90c31.333 -36.667 70.666 -55 117.999 -55
c51.333 0 89.666 18.333 114.999 55c10.667 15.333 16 30 16 44zM440.003 160.001c0 67.333 -26 112 -78 134c-23.333 10 -44 15 -62 15c-14 0 -30.667 -3 -50 -9c-56 -17.333 -84 -48.333 -84 -93c0 -40.667 8.33301 -71 25 -91c32 -36.667 71.333 -55 118 -55
c51.333 0 90 18.667 116 56c10 14.667 15 29 15 43z" />
    <glyph glyph-name="nine" unicode="9" horiz-adv-x="600" 
d="M551 423l-1 -10.0039c0 -46.667 -2 -81 -6 -103c-3.33301 -15.333 -5.66602 -40.666 -6.99902 -75.999c-1.33301 -32.667 -4.33301 -57.667 -9 -75c-14 -53.333 -43 -99.666 -87 -138.999c-13.333 -11.333 -27 -19.666 -41 -24.999c-18.667 -7.33301 -46 -11 -82 -11
c-14.667 0 -28.667 0.666992 -42 2c-38 4 -71.667 13 -101 27c-22.667 10 -35.667 16.333 -39 19c-11.333 6.66699 -21.333 17.334 -30 32.001c-6.66699 10.667 -10 20.667 -10 30c0 14 6.16699 26.167 18.5 36.5s25.5 15.5 39.5 15.5c12.667 0 33 -10.167 61 -30.5
s54.333 -30.5 79 -30.5c32.667 0 60 14.667 82 44c18 24 30.333 54 37 90c-35.333 -14.667 -73 -22 -113 -22c-45.333 0 -87 9.33301 -125 28c-41.333 19.333 -73.333 47.333 -96 84c-20.667 32 -31 80 -31 144c0 62 18.667 113 56 153c51.333 54 117.666 81 198.999 81
c76 0 136.667 -25.667 182 -77c44 -48.667 66 -111 66 -187zM441 411.996c0 50.667 -9.00098 88.333 -27.001 113c-32.667 45.333 -74 68 -124 68c-54 0 -94.667 -22.667 -122 -68c-10.667 -18.667 -16 -37 -16 -55c0 -61.333 14 -107 42 -137
c28.667 -32 64.334 -48 107.001 -48c30 0 58.833 9.33301 86.5 28s44.5 42 50.5 70c2 8 3 17.667 3 29z" />
    <glyph glyph-name="colon" unicode=":" horiz-adv-x="236" 
d="M189 450c0 -16 -6.00098 -30.6689 -18.001 -44.002s-26 -20 -42 -20c-22 0 -39.167 8.33301 -51.5 25s-18.5 36.334 -18.5 59.001c0 18.667 5.66699 34.334 17 47.001s26 19 44 19c22.667 0 40.334 -9 53.001 -27c10.667 -16 16 -35.667 16 -59zM188.999 49.998
c0 -16 -6.00098 -30.6689 -18.001 -44.002s-26 -20 -42 -20c-22 0 -39.167 8.33301 -51.5 25s-18.5 36.334 -18.5 59.001c0 18.667 5.66699 34.334 17 47.001s26 19 44 19c22.667 0 40.334 -9 53.001 -27c10.667 -16 16 -35.667 16 -59z" />
    <glyph glyph-name="semicolon" unicode=";" horiz-adv-x="250" 
d="M220 450c0 -16 -6 -30.6689 -18 -44.002s-26 -20 -42 -20c-22 0 -39.333 8.33301 -52 25s-19 36.334 -19 59.001c0 18.667 5.83301 34.334 17.5 47.001s26.5 19 44.5 19c22 0 39 -8.5 51 -25.5s18 -37.167 18 -60.5zM203 126.998c0 -6 -19.3369 -58.667 -58.0039 -158
c-5.33301 -15.333 -13.666 -38 -24.999 -68l-12.5 -35c-4.33301 -12 -11.666 -20.667 -21.999 -26s-20.833 -8 -31.5 -8c-27.333 0 -41 12 -41 36c0 23.333 24.667 97.333 74 222c10.667 26 18.334 43.333 23.001 52c12.667 20.667 27.334 31 44.001 31
c10.667 0 21.5 -5 32.5 -15s16.5 -20.333 16.5 -31z" />
    <glyph glyph-name="less" unicode="&#x3c;" horiz-adv-x="497" 
d="M455 131c0 -14 -5 -25.501 -15 -34.501s-22 -13.5 -36 -13.5c-8 0 -19.667 3.33301 -35 10c-28 14 -70 33.667 -126 59c-38 14.667 -92 37.667 -162 69c-16 8 -25.667 13.667 -29 17c-8 7.33301 -12 17.333 -12 30c0 13.333 8 29.333 24 48
c5.33301 6 21.333 18.333 48 37l124 84c27.333 21.333 69.333 52 126 92l21 16.5c7.33301 5.66699 14.333 8.5 21 8.5c10.667 0 19.667 -5.16699 27 -15.5s11 -21.166 11 -32.499c0 -34 -13.667 -60.667 -41 -80l-91 -57c-28.667 -21.333 -73.334 -50 -134.001 -86l169 -65
c12.667 -4 31.334 -11 56.001 -21c7.33301 -2.66699 14.333 -5.5 21 -8.5s12.667 -8.16699 18 -15.5c10 -14 15 -28 15 -42z" />
    <glyph glyph-name="equal" unicode="=" horiz-adv-x="513" 
d="M472 377c0 -6 -1.33301 -12 -4 -18c-4.66699 -13.333 -16 -22.333 -34 -27c-5.33301 -1.33301 -21 -3 -47 -5c-62.667 -6 -147 -9 -253 -9c-63.333 0 -95 18.667 -95 56c0 26 11.667 45 35 57c6.66699 3.33301 74.334 5 203.001 5c10 0 24.833 0.5 44.5 1.5
s34.5 1.5 44.5 1.5c4.66699 0 11.5 0.333008 20.5 1s15.5 1 19.5 1c17.333 0 32.666 -6.33301 45.999 -19s20 -27.667 20 -45zM469 137c0 -6 -1.33398 -12 -4.00098 -18c-4.66699 -13.333 -16 -22.333 -34 -27c-5.33301 -1.33301 -21 -3 -47 -5
c-62.667 -6 -146.667 -9 -252 -9c-64 0 -96 18.667 -96 56c0 26 11.667 45 35 57c6.66699 3.33301 74.334 5 203.001 5c10 0 24.833 0.5 44.5 1.5s34.5 1.5 44.5 1.5c4.66699 0 11.5 0.333008 20.5 1s15.5 1 19.5 1c18 0 33.5 -6.33301 46.5 -19s19.5 -27.667 19.5 -45z" />
    <glyph glyph-name="greater" unicode="&#x3e;" horiz-adv-x="487" 
d="M452 268c0 -12.667 -4.00293 -22.667 -12.0029 -30c-3.33301 -3.33301 -12.666 -9 -27.999 -17c-4.66699 -2.66699 -59 -25.667 -163 -69c-9.33301 -4 -51.333 -23.667 -126 -59c-15.333 -6.66699 -26.666 -10 -33.999 -10c-14.667 0 -27 4.5 -37 13.5s-15 20.5 -15 34.5
s5 28 15 42c5.33301 7.33301 11.333 12.5 18 15.5s13.334 5.83301 20.001 8.5s25.667 9.66699 57 21l169 65c-19.333 8.66699 -42 22.334 -68 41.001c-41.333 28.667 -63.333 43.667 -66 45c-20.667 12 -51 31 -91 57c-27.333 19.333 -41 46 -41 80
c0 11.333 3.66699 22.166 11 32.499s16.333 15.5 27 15.5c6.66699 0 13.667 -2.83301 21 -8.5l21 -16.5l126 -92l124 -84c11.333 -6.66699 27.333 -19 48 -37c16 -18.667 24 -34.667 24 -48z" />
    <glyph glyph-name="question" unicode="?" horiz-adv-x="566" 
d="M537 504c0 -22 -8.66699 -49.332 -26 -81.999c-14.667 -28 -31.334 -52 -50.001 -72l-39 -40c-13.333 -16 -24.166 -27.5 -32.499 -34.5s-18.833 -16.5 -31.5 -28.5c-16 -18 -26.667 -29.667 -32 -35c-11.333 -9.33301 -25.333 -16 -42 -20l-18 -5
c-14 0 -25.833 5 -35.5 15s-14.5 22 -14.5 36c0 20.667 12.333 41.667 37 63l61 49l34 40c45.333 48 68 85.333 68 112c0 4 -1 8 -3 12c-29.333 57.333 -72.666 86 -129.999 86c-34.667 0 -73 -14 -115 -42c-8.66699 -9.33301 -24.334 -20.333 -47.001 -33
c-8 -2 -15.333 -3 -22 -3c-14 0 -27.833 5.5 -41.5 16.5s-20.5 23.167 -20.5 36.5s6.33301 28.666 19 45.999c8.66699 12.667 20 22.667 34 30s28 14 42 20c36 16.667 78.667 27.667 128 33c23.333 2.66699 43.333 4 60 4c28 0 51 -3.33301 69 -10
c42.667 -16.667 82 -51 118 -103c20 -28.667 30 -59 30 -91zM352 66.001c0 -18 -5.83301 -33.333 -17.5 -46s-26.5 -19 -44.5 -19c-22 0 -39.333 9 -52 27c-11.333 16 -17 35.667 -17 59c0 16 6 30.667 18 44s26 20 42 20c22 0 39.333 -8.33301 52 -25s19 -36.667 19 -60z
" />
    <glyph glyph-name="at" unicode="@" horiz-adv-x="720" 
d="M678 254c0 -32 -14.8359 -66.167 -44.5029 -102.5s-60.5 -57.5 -92.5 -63.5c-11.333 -2 -24 -3 -38 -3c-22 0 -34.667 0.333008 -38 1c-13.333 2.66699 -22.666 10 -27.999 22c-28.667 -18 -59 -27 -91 -27c-70.667 0 -120.334 37.333 -149.001 112c-10 26 -15 50 -15 72
c0 21.333 4.66699 44.333 14 69c26 70.667 77.333 106 154 106c36.667 0 68.667 -10.333 96 -31c6.66699 26 19.667 39 39 39c14 0 25.5 -6 34.5 -18s13.5 -25 13.5 -39c0 -4 -3 -51.667 -9 -143c-0.666992 -13.333 -2 -33.333 -4 -60l1 -2c5.33301 -4 11 -6 17 -6
c16.667 0 33.834 10.167 51.501 30.5s26.5 38.833 26.5 55.5c0 38.667 -10 83.334 -30 134.001c-13.333 34 -27.666 60.5 -42.999 79.5s-38 37.167 -68 54.5c-41.333 24.667 -78.666 37 -111.999 37c-66 0 -125 -25 -177 -75c-48 -46 -71.667 -106 -71 -180v-26
c0 -36 3 -64 9 -84c6 -22.667 18.667 -48.667 38 -78c30 -47.333 60.333 -81.333 91 -102c35.333 -23.333 79 -35 131 -35c30 0 61.333 7 94 21l12 -44c-42.667 -20.667 -88.334 -31 -137.001 -31c-78.667 0 -146.667 28.667 -204 86c-31.333 30.667 -57.333 73 -78 127
c-19.333 49.333 -29 95.333 -29 138c0 42 8.66699 86.333 26 133c14.667 38.667 30.667 69 48 91c60 74 138.667 110.667 236 110h8c74 -0.666992 139.333 -22.667 196 -66c34.667 -27.333 62 -59.333 82 -96c14.667 -26.667 24.667 -53.334 30 -80.001
c2.66699 -16 5.33398 -44 8.00098 -84c1.33301 -30 2 -44 2 -42zM430.997 247c0 47.333 -15.332 80.333 -45.999 99c-14 8 -26 12 -36 12c-8 0 -18 -2.66699 -30 -8c-32.667 -13.333 -49 -38.333 -49 -75v-9c0.666992 -20 5.66699 -37.667 15 -53
c19.333 -30 42.666 -45 69.999 -45c20.667 0 38.5 8 53.5 24s22.5 34.333 22.5 55z" />
    <glyph glyph-name="A" unicode="A" horiz-adv-x="632" 
d="M620 66c0 -14.667 -5.16406 -27.332 -15.4971 -37.999s-22.5 -16 -36.5 -16c-18.667 0 -39.334 9.66699 -62.001 29c-11.333 10 -20.833 22.333 -28.5 37l-22.5 44c-3.33301 6 -7.66602 15 -12.999 27c-60 1.33301 -149.333 6.66602 -268 15.999
c-5.33301 -20 -14 -49.333 -26 -88l-10 -35c-3.33301 -12 -9.33301 -22 -18 -30c-16 -15.333 -31 -23 -45 -23c-16.667 0 -29.667 9 -39 27c-7.33301 14.667 -11 31 -11 49c0 16 6 41 18 75l27 76l89 295c9.33301 33.333 25 82.333 47 147c10 26 15.333 39.667 16 41
c9.33301 16 20.666 24 33.999 24c11.333 0 21.666 -4.33301 30.999 -13c0.666992 -0.666992 8 -9.66699 22 -27c6.66699 -7.33301 22 -35.333 46 -84l57 -116l54 -107l64 -129c13.333 -24 32.666 -60.667 57.999 -110l20 -35c8 -14 12 -26 12 -36zM392.003 263.002
c-57.333 117.333 -95.998 208.666 -115.998 273.999c-6.66699 -19.333 -30.334 -105.666 -71.001 -258.999c41.333 -4.66699 103.666 -9.66699 186.999 -15z" />
    <glyph glyph-name="B" unicode="B" horiz-adv-x="616" 
d="M569 538c0 -42.667 -3.33398 -73.332 -10.001 -91.999c-8 -20.667 -25.667 -45.667 -53 -75c-5.33301 -5.33301 -12.333 -10 -21 -14c21.333 -16 40.166 -39.5 56.499 -70.5s24.5 -59.5 24.5 -85.5c0 -25.333 -7.33301 -54 -22 -86c-8 -16 -24.667 -36.667 -50 -62
c-28.667 -28 -61 -48 -97 -60c-30 -10 -65.333 -15 -106 -15c-30.667 0 -61.667 2.66699 -93 8v9c-7.33301 -2.66699 -15.333 -4 -24 -4c-6 0 -12 0.333008 -18 1c-16 3.33301 -27.333 7.33301 -34 12s-13.667 14.5 -21 29.5s-12.333 32.5 -15 52.5l-6 53
c-8 50.667 -15.333 139.667 -22 267c-4.66699 88.667 -7 139 -7 151v22c36 39.333 73.667 72.333 113 99c50.667 34.667 96.334 52 137.001 52c6.66699 0 22 -1 46 -3c38 -2.66699 73.333 -12.334 106 -29.001c46.667 -24.667 80.334 -60.667 101.001 -108
c10 -22.667 15 -40 15 -52zM451.999 529.002c0 26.667 -8.99902 49.333 -26.999 68s-54.667 28 -110 28c-52.667 0 -96.667 -18.333 -132 -55l19 -185c11.333 0.666992 23.666 1 36.999 1s32.833 -0.666992 58.5 -2s45.167 -2 58.5 -2c16 0 33.667 9 53 27
c28.667 26.667 43 66.667 43 120zM445 204.001c0 58 -42.999 87 -128.999 87c-37.333 0 -69.666 -1.66699 -96.999 -5v-8c0 -48 2 -87.333 6 -118l9 -64c-6 0 7.66699 0 41 0c5.33301 0 13.666 -0.333008 24.999 -1s19.666 -1 24.999 -1c20.667 0 39.5 4.5 56.5 13.5
s28.5 16.167 34.5 21.5c9.33301 8 16.5 19.5 21.5 34.5s7.5 28.5 7.5 40.5z" />
    <glyph glyph-name="C" unicode="C" horiz-adv-x="666" 
d="M649 211c0 -13.333 -4.50195 -26.8311 -13.502 -40.498l-25.5 -38.5c-28 -42 -66 -76.333 -114 -103s-95.333 -40 -142 -40c-54 0 -108 19.333 -162 58c-27.333 20.667 -56 53 -86 97c-26.667 40 -45 77.833 -55 113.5s-15 73.167 -15 112.5
c0 110 35.667 198.667 107 266c13.333 12.667 23.333 21.334 30 26.001c10.667 8 22.334 14.333 35.001 19c23.333 9.33301 57.333 14 102 14c68.667 0 128.667 -12 180 -36l42 -20.5c14 -7 25.667 -16.833 35 -29.5c12.667 -17.333 19 -32 19 -44
c0 -15.333 -6.66699 -28.833 -20 -40.5s-27.666 -17.5 -42.999 -17.5c-7.33301 0 -14.833 1.16699 -22.5 3.5s-15.834 7.16602 -24.501 14.499c-14 11.333 -21.667 17.666 -23 18.999c-40 27.333 -77.667 41 -113 41c-52 0 -94 -27 -126 -81
c-27.333 -46.667 -41 -97.667 -41 -153c0 -24.667 4.66699 -51.667 14 -81c30 -90 85 -135 165 -135c41.333 0 83 18.333 125 55c12.667 16 34.334 37.333 65.001 64c27.333 16 46 24 56 24c16 0 28.667 -7.66699 38 -23c8.66699 -12.667 13 -27.334 13 -44.001z" />
    <glyph glyph-name="D" unicode="D" horiz-adv-x="638" 
d="M589 369c0 -40.667 -4.66699 -77.666 -14 -110.999c-10.667 -35.333 -29.334 -73.333 -56.001 -114c-29.333 -44 -58 -76.333 -86 -97c-53.333 -38.667 -107.666 -58 -162.999 -58c-14.667 0 -37.167 0.5 -67.5 1.5s-53.166 1.5 -68.499 1.5
c-4.66699 0 -11.834 -0.333008 -21.501 -1s-17.167 -1 -22.5 -1c-8.66699 0 -14 0.666992 -16 2c-18.667 8.66699 -28 44.667 -28 108c0 113.333 5 253 15 419c3.33301 51.333 6 84.666 8 99.999c7.33301 46.667 19.333 75.667 36 87c6.66699 4.66699 16 7 28 7
c2.66699 0 21.667 -2.66699 57 -8c18 -2.66699 39.667 -4 65 -4c6 0 14.833 0.333008 26.5 1s20.5 1 26.5 1c36.667 0 73 -7.33301 109 -22c20 -8 41.667 -23 65 -45c71.333 -67.333 107 -156.333 107 -267zM453 351.001c0 55.333 -13.333 105 -40 149
c-14.667 25.333 -24 40.333 -28 45c-11.333 16 -24.333 27.667 -39 35c-18.667 10 -38.334 15 -59.001 15c-10.667 0 -25.334 -0.666992 -44.001 -2c-21.333 -1.33301 -36.333 -2.33301 -45 -3c-1.33301 -37.333 -6.66602 -133 -15.999 -287l-7 -172
c4.66699 1.33301 9 2 13 2c4.66699 0 12.667 -1.83301 24 -5.5s20.666 -5.5 27.999 -5.5c2 0 16 1.33301 42 4c16.667 1.33301 40.334 10.833 71.001 28.5s55.334 46.167 74.001 85.5c17.333 36 26 73 26 111z" />
    <glyph glyph-name="E" unicode="E" horiz-adv-x="459" 
d="M470 53c0 -36 -13 -55.999 -39 -59.999c-29.333 -4.66699 -68.666 -7 -117.999 -7c-14 0 -35 0.5 -63 1.5s-48.667 1.5 -62 1.5c-10 0 -24.5 -0.5 -43.5 -1.5s-33.167 -1.5 -42.5 -1.5c-28 0 -48 2.33301 -60 7c-20 7.33301 -30 22.333 -30 45c0 5.33301 0.5 13 1.5 23
s1.5 17.333 1.5 22c0 20 -0.333008 49.333 -1 88v88c0 43.333 0.5 108.333 1.5 195s1.5 151.667 1.5 195c0 8.66699 2.66699 16 8 22s15.666 10.667 30.999 14c28 6 60.333 9 97 9c9.33301 0 23.833 -0.5 43.5 -1.5s34.167 -1.5 43.5 -1.5c7.33301 0 17.833 0.333008 31.5 1
s24.167 1 31.5 1c42 0 71.333 -9 88 -27c14.667 -15.333 22 -29.333 22 -42c0 -38 -47 -57 -141 -57h-19c-8.66699 -0.666992 -15.334 -1 -20.001 -1c-5.33301 0 -13.333 0.5 -24 1.5s-18.667 1.5 -24 1.5c-18 0 -29.5 -2.66699 -34.5 -8s-7.5 -17 -7.5 -35
c0 -51.333 4 -81.333 12 -90s27.333 -13 58 -13c8.66699 0 21.5 0.333008 38.5 1s29.833 1 38.5 1c33.333 0 50 -27 50 -81c0 -26.667 -11.333 -42.334 -34 -47.001c-9.33301 -2 -39.666 -3 -90.999 -3c-34.667 0 -55.5 -4 -62.5 -12s-10.5 -29.667 -10.5 -65
c0 -54 5.33301 -83.333 16 -88c5.33301 -2 16.333 -3 33 -3c10 0 25 0.5 45 1.5s35 1.5 45 1.5c5.33301 0 13.666 -0.333008 24.999 -1s20 -1 26 -1c5.33301 0 13.333 0.333008 24 1s18.667 1 24 1c26.667 0 47.334 -7.33301 62.001 -22c18.667 -18.667 28 -36.667 28 -54z
" />
    <glyph glyph-name="F" unicode="F" horiz-adv-x="463" 
d="M446 378c0 -34 -13.001 -53.3359 -39.001 -58.0029c-28 -4.66699 -71.667 -7 -131 -7c-26.667 0 -62.334 0.666992 -107.001 2c-1.33301 -2 -2 -8.66699 -2 -20c0 -28 2 -70.5 6 -127.5s6 -99.5 6 -127.5c0 -32.667 -2.66699 -49.667 -8 -51c-2 -0.666992 -14 -2 -36 -4
c-13.333 -1.33301 -23.666 -2 -30.999 -2c-49.333 0 -74 18.333 -74 55c0 5.33301 0.666992 13 2 23s2 17.333 2 22c0 20.667 -0.333008 51.167 -1 91.5s-1 70.5 -1 90.5c0 42.667 0.666992 106.834 2 192.501s2 149.834 2 192.501c0 8 3 15.333 9 22
c4 5.33301 13.667 9.66602 29 12.999c28 6 60.667 9 98 9c9.33301 0 23.666 -0.5 42.999 -1.5s33.666 -1.5 42.999 -1.5c7.33301 0 18 0.333008 32 1s24.333 1 31 1c42.667 0 72.334 -9 89.001 -27c14.667 -15.333 22 -29.333 22 -42c0 -28 -23.667 -45.667 -71 -53
c-7.33301 -1.33301 -42 -2.66602 -104 -3.99902l-5 -1c-5.33301 0 -13.333 0.5 -24 1.5s-18.667 1.5 -24 1.5c-23.333 0 -36.666 -6.33301 -39.999 -19c-2 -5.33301 -3 -13.333 -3 -24c0 -48 4.33301 -78 13 -90c7.33301 -2.66699 16 -4 26 -4
c6.66699 0 16.667 0.666992 30 2s23.333 2 30 2c5.33301 0 13.333 -0.333008 24 -1s18.667 -1 24 -1s13.333 0.333008 24 1s18.667 1 24 1c24.667 0 45.334 -7.33301 62.001 -22c6.66699 -5.33301 13 -10.666 19 -15.999s9 -12 9 -20z" />
    <glyph glyph-name="G" unicode="G" horiz-adv-x="702" 
d="M672 286c0 -46.667 -17.999 -97.999 -53.999 -153.999c-26.667 -41.333 -64.334 -75.5 -113.001 -102.5s-96.334 -40.5 -143.001 -40.5c-53.333 0 -107 19.333 -161 58c-28 20.667 -56.667 53 -86 97c-26.667 40 -45.167 77.833 -55.5 113.5s-15.5 73.167 -15.5 112.5
c0 82.667 20 153.334 60 212.001c34.667 50.667 72.334 83.667 113.001 99c22.667 9.33301 56.667 14 102 14c18.667 0 36.334 -1 53.001 -3c48 -5.33301 90.333 -16.333 127 -33l42 -20c14 -7.33301 25.667 -17.333 35 -30c12 -17.333 18 -32 18 -44
c0 -15.333 -6.5 -28.833 -19.5 -40.5s-27.5 -17.5 -43.5 -17.5c-6.66699 0 -13.834 1.16699 -21.501 3.5s-16.167 7.16602 -25.5 14.499c-14 12 -21.333 18.333 -22 19c-40 27.333 -77.667 41 -113 41c-51.333 0 -94 -28.333 -128 -85c-26.667 -43.333 -40 -93 -40 -149
c0 -25.333 5 -52.333 15 -81c29.333 -89.333 85.666 -134 168.999 -134c34.667 0 70 11.667 106 35c34 22.667 59.667 49.667 77 81c-16 2.66699 -40.333 6 -73 10l-68 6l-35 4c-12 1.33301 -21.667 7.33301 -29 18c-10 15.333 -15 32.666 -15 51.999
c0 37.333 18.333 56 55 56c51.333 0 116 -4.66699 194 -14c29.333 -4 47 -7 53 -9c18.667 -6 30.334 -17.5 35.001 -34.5s7 -35.167 7 -54.5z" />
    <glyph glyph-name="H" unicode="H" horiz-adv-x="556" 
d="M498 93c0 -32.667 -2.00195 -55.6602 -6.00195 -68.9932c-7.33301 -26.667 -23 -40 -47 -40c-13.333 0 -25.666 7.33301 -36.999 22c-9.33301 12 -14.833 25 -16.5 39s-3.16699 28 -4.5 42c-4 37.333 -6 80.333 -6 129c0 12 -0.666992 27.667 -2 47
c-2 23.333 -3 38.666 -3 45.999l-209 -3c4.66699 -40.667 7 -88.334 7 -143.001v-58v-58c0 -32 -16 -48 -48 -48c-19.333 0 -36.333 6.66699 -51 20c-13.333 11.333 -20 27 -20 47c0 15.333 0.833008 38.833 2.5 70.5s2.5 55.5 2.5 71.5
c0 24.667 -0.833008 61.834 -2.5 111.501s-2.5 86.834 -2.5 111.501l1 130c0 5.33301 -0.833008 13.666 -2.5 24.999s-2.5 19.666 -2.5 24.999c0 15.333 5.33301 27.666 16 36.999s23.667 14 39 14c32 0 48 -15 48 -45v-10c-0.666992 -4.66699 -1 -8 -1 -10
c0 -15.333 1.33301 -37.833 4 -67.5s4 -51.834 4 -66.501c0 -18.667 -0.666992 -40.334 -2 -65.001h61c56.667 0 108 1.66699 154 5v14c0 20.667 -0.666992 50.5 -2 89.5s-2 67.833 -2 86.5c0 65.333 19.667 98 59 98c18.667 0 33.334 -6.33301 44.001 -19
c14.667 -17.333 22 -84.666 22 -201.999c0 -24.667 -0.333008 -62.334 -1 -113.001v-113c0 -16.667 0.666992 -41.834 2 -75.501s2 -58.834 2 -75.501z" />
    <glyph glyph-name="I" unicode="I" horiz-adv-x="271" 
d="M224 613c0 -42 -2 -93.6641 -6 -154.997c-4 -52 -7.66699 -103.667 -11 -155c-0.666992 -32 -2.66699 -80 -6 -144l-2 -71c-2 -28.667 -8.66699 -50.334 -20 -65.001c-16.667 -20.667 -33.667 -31 -51 -31c-38 0 -57 37.667 -57 113c0 110.667 5 248.667 15 414
c3.33301 57.333 6.66602 94.666 9.99902 111.999c10 54 27.667 81 53 81c20.667 0 38.334 -9.33301 53.001 -28s22 -42.334 22 -71.001z" />
    <glyph glyph-name="J" unicode="J" horiz-adv-x="719" 
d="M677 666c0 -25.333 -2.33398 -57.002 -7.00098 -95.002c-8 -58 -12 -89.333 -12 -94v1c3.33301 -13.333 5 -28.333 5 -45c0 -6.66699 -0.333008 -16.667 -1 -30s-1 -23.333 -1 -30c0 -46 -5.16699 -85.833 -15.5 -119.5s-28.5 -70.167 -54.5 -109.5
c-29.333 -44 -58 -76.333 -86 -97c-54 -38.667 -107.667 -58 -161 -58c-47.333 0 -95 13.333 -143 40s-85.667 61 -113 103l-26.5 38.5c-9 13.667 -13.5 27.167 -13.5 40.5c0 16.667 4.33301 31.334 13 44.001c10 15.333 22.667 23 38 23c10.667 0 29.334 -8 56.001 -24
c10.667 -6 22 -16 34 -30c16 -18 26.333 -29.333 31 -34c42 -36.667 83.667 -55 125 -55c78 0 133 45 165 135c13.333 36.667 20 58.667 20 66v9c-0.666992 4.66699 -1 8 -1 10c0 7.33301 0.833008 18.5 2.5 33.5s2.5 26.167 2.5 33.5c0 14.667 0.666992 36.834 2 66.501
s2 52.167 2 67.5c0 4 -0.333008 10.333 -1 19v19c0 89.333 22 134 66 134c13.333 0 27.333 -4 42 -12s24.667 -17.667 30 -29c1.33301 -4 2 -11 2 -21z" />
    <glyph glyph-name="K" unicode="K" horiz-adv-x="575" 
d="M555 623c0 -12.667 -4.99902 -26.667 -14.999 -42c-3.33301 -5.33301 -72.333 -55 -207 -149c-20.667 -16 -52.334 -39.333 -95.001 -70c11.333 -10 41.666 -40.333 90.999 -91l117 -120c51.333 -54 77 -92.667 77 -116c0 -13.333 -6.16699 -24 -18.5 -32
s-25.166 -12 -38.499 -12c-10.667 0 -22.667 3 -36 9c-10.667 4.66699 -76.334 71.667 -197.001 201l-58 58c-0.666992 -41.333 -1.66699 -74.166 -3 -98.499s-2.33301 -48.5 -3 -72.5c-2 -28 -8.66699 -49.667 -20 -65c-16.667 -20.667 -33.667 -31 -51 -31
c-38 0 -57 37.667 -57 113c0 110.667 5 248.667 15 414c2.66699 51.333 5.33398 84.666 8.00098 99.999c6.66699 46.667 18.667 75.667 36 87c5.33301 4 12 6 20 6c18 0 34 -7.66699 48 -23c12 -12.667 20 -28.667 24 -48c1.33301 -4.66699 2 -13.667 2 -27
c0 -23.333 -2 -71.333 -6 -144c45.333 36 113.333 85.667 204 149c57.333 40 97.333 60 120 60c28.667 0 43 -18.667 43 -56z" />
    <glyph glyph-name="L" unicode="L" horiz-adv-x="465" 
d="M462 89c0 -18 -8.99902 -31.6709 -26.999 -41.0039c-6.66699 -3.33301 -23.334 -8.33301 -50.001 -15c-54.667 -14.667 -128 -30 -220 -46c-33.333 -6 -55.333 -9 -66 -9c-24 0 -41.333 6 -52 18c-9.33301 10 -15.166 27.333 -17.499 52s-3.5 53 -3.5 85
c0 20 0.666992 49.833 2 89.5s2 69.5 2 89.5c0 18 -0.5 44.833 -1.5 80.5s-1.5 62.167 -1.5 79.5c0 12.667 0.666992 31.167 2 55.5s2 42.5 2 54.5c0 6 -0.833008 15 -2.5 27s-2.5 21 -2.5 27c0 37.333 22.333 56 67 56c44 0 66 -20.667 66 -62
c0 -3.33301 -0.333008 -8.83301 -1 -16.5s-1 -13.167 -1 -16.5c0 -5.33301 0.333008 -13.166 1 -23.499s1 -18.166 1 -23.499c0 -11.333 -0.5 -28.666 -1.5 -51.999s-1.5 -40.333 -1.5 -51v-108c0 -94 2.33301 -170.667 7 -230c40.667 3.33301 74 7.33301 100 12
c18.667 4 46.667 9.66699 84 17c2.66699 0.666992 12 2.66699 28 6c10.667 3.33301 19.667 5 27 5c15.333 0 29.166 -6.16699 41.499 -18.5s18.5 -26.166 18.5 -41.499z" />
    <glyph glyph-name="M" unicode="M" horiz-adv-x="820" 
d="M785 48c0 -14.667 -4.00488 -28.999 -12.0049 -42.999c-10 -16 -21.667 -24 -35 -24c-19.333 0 -37.333 12 -54 36c-11.333 17.333 -22.333 50 -33 98c-6.66699 36 -13.667 71.667 -21 107c-13.333 52 -30.666 131 -51.999 237l-80 -289l-28 -94
c-3.33301 -12 -6.83301 -23.833 -10.5 -35.5s-10.167 -22.834 -19.5 -33.501c-11.333 -13.333 -23.666 -20 -36.999 -20c-12 0 -27.333 13.333 -46 40c-11.333 16 -22.333 48.667 -33 98l-22 106c-13.333 52.667 -30.666 132 -51.999 238l-80 -289
c-5.33301 -21.333 -14.333 -53 -27 -95c-3.33301 -11.333 -7 -23 -11 -35s-9.33301 -22 -16 -30c-14 -15.333 -27 -23 -39 -23c-28 0 -42 27.667 -42 83c0 14.667 5 36.667 15 66c6.66699 18.667 16.334 47.334 29.001 86.001l84 279c9.33301 31.333 24 77.666 44 138.999
c10 26.667 15.667 41.334 17 44.001c8.66699 16 20 24 34 24c13.333 0 27.666 -16 42.999 -48c4 -9.33301 12 -38 24 -86l86 -347l80 264c8.66699 31.333 23.334 78 44.001 140c9.33301 26.667 14.666 41 15.999 43c8.66699 16.667 20.334 25 35.001 25
c13.333 0 27.333 -16.333 42 -49c4 -8.66699 12 -37.334 24 -86.001l88 -350c6.66699 -24 16.334 -60.667 29.001 -110c0.666992 -2 4 -13 10 -33c4 -13.333 6 -24.333 6 -33z" />
    <glyph glyph-name="N" unicode="N" horiz-adv-x="595" 
d="M552 617c0 -7.33301 -1.32812 -17.8369 -3.99512 -31.5039s-4.33398 -23.834 -5.00098 -30.501c-8 -185.333 -12 -278.666 -12 -279.999c0 -17.333 0.5 -43.166 1.5 -77.499s1.5 -60.166 1.5 -77.499v-39c-0.666992 -17.333 -1 -30.333 -1 -39
c0 -16.667 -5.16699 -31 -15.5 -43s-23.5 -18 -39.5 -18c-26.667 0 -52.334 31.333 -77.001 94c-42 108.667 -93.667 201 -155 277c-4.66699 -66 -13.334 -133.333 -26.001 -202c-4 -24 -11.333 -59.667 -22 -107c-12 -44 -46.667 -66 -104 -66c-34 0 -51 15.667 -51 47
c0 9.33301 2 21.333 6 36c2.66699 8 8.5 18.167 17.5 30.5s14.5 20.833 16.5 25.5c32 62 48 182 48 360c0 8.66699 -0.666992 21.667 -2 39s-2 30.333 -2 39c0 46.667 15.333 70 46 70c5.33301 0 11 -0.833008 17 -2.5s17.333 -11.5 34 -29.5
c6 -6.66699 27.333 -37.667 64 -93c43.333 -65.333 69 -105 77 -119c28 -45.333 48.667 -87.666 62 -126.999c1.33301 42 2 85 2 129c0 20 -0.5 50.5 -1.5 91.5s-1.5 71.5 -1.5 91.5c0 4.66699 -0.5 11.834 -1.5 21.501s-1.5 16.834 -1.5 21.501c0 18 6.66699 36.5 20 55.5
s28.666 28.5 45.999 28.5c15.333 0 29.666 -8.33301 42.999 -25s20 -33.334 20 -50.001z" />
    <glyph glyph-name="O" unicode="O" horiz-adv-x="726" 
d="M679 304c0 -117.333 -51.665 -207 -154.998 -269c-52.667 -32 -109 -48 -169 -48c-78.667 0 -146.667 28.333 -204 85c-30.667 31.333 -56.667 74 -78 128c-18.667 49.333 -28 95.333 -28 138c0 42 8.66699 86.333 26 133c14 39.333 30 70 48 92
c59.333 72.667 138.666 109 237.999 109c77.333 0 144.333 -22 201 -66c35.333 -27.333 62.666 -59.333 81.999 -96c26 -47.333 39 -116 39 -206zM564.002 302c0 12 -1.99805 29.333 -5.99805 52c-13.333 85.333 -49 145 -107 179c-32.667 19.333 -62.334 29 -89.001 29
c-20.667 0 -45.334 -6 -74.001 -18c-80.667 -33.333 -121 -94.666 -121 -183.999c0 -40 2.66699 -68.833 8 -86.5s15 -37.5 29 -59.5c23.333 -36 47 -62 71 -78c27.333 -19.333 61 -29 101 -29c48 0 89.667 17.667 125 53c42 41.333 63 88.666 63 141.999z" />
    <glyph glyph-name="P" unicode="P" horiz-adv-x="563" 
d="M550 512c0 -24.667 -7.33398 -53.332 -22.001 -85.999c-28 -59.333 -72.333 -101.666 -133 -126.999c-32 -13.333 -74.667 -20 -128 -20c-27.333 0 -55.666 2.66699 -84.999 8c0 -13.333 0.333008 -34 1 -62v-63c0 -52.667 -1.33301 -93.667 -4 -123
c-4 -45.333 -24.333 -68 -61 -68c-10.667 0 -22.334 2 -35.001 6c-21.333 7.33301 -35.666 19.666 -42.999 36.999c-5.33301 14 -8 35 -8 63c0 14 1 34.167 3 60.5s3 46.166 3 59.499c0 30.667 -1 76.167 -3 136.5s-3 105.5 -3 135.5c0 13.333 0.5 33.333 1.5 60
s1.5 46.667 1.5 60c0 2.66699 -0.333008 7.33398 -1 14.001v14c0 29.333 8 49 24 59c10.667 6 38.667 11.333 84 16c36.667 3.33301 67 5 91 5c18.667 0 43.667 -0.666992 75 -2l71 -4c32 -2.66699 54.333 -6.33398 67 -11.001c29.333 -10.667 56 -38.667 80 -84
c16 -30.667 24 -58.667 24 -84zM427.999 515.002c0 30.667 -14.001 53.666 -42.001 68.999c-22 12 -50 18 -84 18c-46 0 -88.333 -3 -127 -9l1 -179c36.667 -12.667 80.667 -19 132 -19c34.667 0 63.334 11.333 86.001 34s34 51.334 34 86.001z" />
    <glyph glyph-name="Q" unicode="Q" horiz-adv-x="739" 
d="M694 14c0 -17.333 -5.66602 -33.999 -16.999 -49.999s-25.666 -24 -42.999 -24c-12.667 0 -33.667 12 -63 36c-22.667 18 -42 34.667 -58 50c-46.667 -26 -98.334 -39 -155.001 -39c-78.667 0 -146.667 28.333 -204 85c-30.667 31.333 -56.667 74 -78 128
c-19.333 49.333 -29 95.333 -29 138c0 42 8.66699 86.333 26 133c23.333 62.667 58.666 111 105.999 145c52 37.333 112.333 56 181 56c76.667 0 143.667 -22 201 -66c34.667 -27.333 62 -59.333 82 -96c26 -46.667 39 -111.667 39 -195
c0 -80.667 -22.333 -148.667 -67 -204c6.66699 -5.33301 16.667 -15 30 -29c10.667 -9.33301 21.5 -19.333 32.5 -30s16.5 -23.334 16.5 -38.001zM567.001 302.001c0 12 -1.99805 29.334 -5.99805 52.001c-14 85.333 -49.667 145 -107 179c-33.333 19.333 -63 29 -89 29
c-21.333 0 -46 -6 -74 -18c-80.667 -33.333 -121 -98.333 -121 -195c0 -32.667 2.5 -57.834 7.5 -75.501s14.5 -37.5 28.5 -59.5c24 -36.667 48.333 -63 73 -79c27.333 -18.667 61.666 -28 102.999 -28c15.333 0 28.666 1.66699 39.999 5l-47 47
c-18.667 21.333 -28 41 -28 59c0 16 8 30.5 24 43.5s32.333 19.5 49 19.5c5.33301 0 11.333 -1 18 -3s37.667 -30.333 93 -85c24 36.667 36 73 36 109z" />
    <glyph glyph-name="R" unicode="R" horiz-adv-x="753" 
d="M752 -54c0 -40.667 -11.999 -70.666 -35.999 -89.999c-14 -10.667 -25.667 -16 -35 -16c-14 0 -25.667 4.33301 -35 13c-4.66699 4 -12.334 14 -23.001 30c-20 30 -34.833 55.833 -44.5 77.5s-24.834 53.5 -45.501 95.5c-42 74 -85.667 126.333 -131 157
c-51.333 35.333 -117 52.666 -197 51.999h-7v-17c0 -48.667 2 -88 6 -118c7.33301 -62 11 -93.333 11 -94c0 -50 -21 -75 -63 -75c-5.33301 0 -11 0.333008 -17 1c-16 3.33301 -27.333 7.5 -34 12.5s-13.667 14.833 -21 29.5s-12.333 32 -15 52l-6 53
c-8 50.667 -15.333 139.667 -22 267c-4.66699 89.333 -7 139.666 -7 150.999v22c36 39.333 73.667 72.333 113 99c50.667 34.667 96.334 52 137.001 52c6.66699 0 22 -1 46 -3c38 -2.66699 73.333 -12.334 106 -29.001c46.667 -24.667 80.334 -60.667 101.001 -108
c10 -22.667 15 -40 15 -52c0 -57.333 -7.33301 -96.666 -22 -117.999c-24.667 -37.333 -52 -62.666 -82 -75.999c31.333 -21.333 76.666 -55.666 135.999 -102.999c46.667 -42 90 -99 130 -171l28 -44c9.33301 -16.667 14 -33.334 14 -50.001zM431.001 499.001
c0 26.667 -9.00293 49.334 -27.0029 68.001s-54.667 28 -110 28c-52.667 0 -96.667 -18.333 -132 -55l20 -199c18 -2 33.667 -3 47 -3c16.667 0 36.334 2 59.001 6c32.667 5.33301 50.334 8.66602 53.001 9.99902c18.667 4.66699 34.334 13 47.001 25
c28.667 26.667 43 66.667 43 120z" />
    <glyph glyph-name="S" unicode="S" horiz-adv-x="585" 
d="M546 228c0 -32.667 -11.3311 -67.332 -33.998 -103.999c-18.667 -28.667 -41 -54 -67 -76c-55.333 -45.333 -103.333 -68 -144 -68c-38.667 0 -74.334 9.33301 -107.001 28c-58 32.667 -99.667 70 -125 112c-16.667 27.333 -25 48 -25 62c0 38.667 15 58 45 58
c22.667 0 37.834 -8.16699 45.501 -24.5l22.5 -48.5c17.333 -22 38.666 -41 63.999 -57c18.667 -10.667 39.667 -16 63 -16c26.667 0 50 6.33301 70 19c56 35.333 84 76.666 84 123.999c0 30.667 -9.66699 53 -29 67l-67 33c-13.333 6.66699 -32.333 14 -57 22
c-27.333 8.66699 -46.666 15.334 -57.999 20.001l-44 20c-14.667 6.66699 -28 17 -40 31c-27.333 32 -41 71 -41 117c0 45.333 21 81.333 63 108c36.667 22.667 79 34 127 34c67.333 0 119.666 -15.333 156.999 -46c20 -16.667 30 -31.667 30 -45
c0 -12 -7.33301 -24.167 -22 -36.5s-28.334 -18.5 -41.001 -18.5c-10.667 0 -20 4.33301 -28 13c-10.667 12 -18 19 -22 21c-14.667 6.66699 -39.667 10 -75 10c-18 0 -33.667 -6.33301 -47 -19s-20 -28 -20 -46c0 -19.333 14 -34 42 -44c22 -6 43.667 -12.667 65 -20
s52 -21 92 -41c41.333 -24.667 71.333 -50.334 90 -77.001c22 -30.667 33 -68 33 -112z" />
    <glyph glyph-name="T" unicode="T" horiz-adv-x="604" 
d="M585 626c0 -37.333 -15.668 -57.668 -47.001 -61.001c-27.333 -3.33301 -78 -5.66602 -152 -6.99902l12 -159c1.33301 -30.667 4.33301 -76.334 9 -137.001c0 -3.33301 4 -38.333 12 -105c4.66699 -42 7 -77 7 -105c0 -44.667 -21.333 -67 -64 -67
c-22 0 -40.667 7.33301 -56 22c-11.333 10.667 -17.833 24.334 -19.5 41.001s-2.83398 33 -3.50098 49c-4 46 -8.33301 115.333 -13 208c-0.666992 56.667 -2 141.667 -4 255c-8.66699 0.666992 -18 1 -28 1c-11.333 0 -27.666 -0.333008 -48.999 -1h-49
c-4 0 -10 -0.333008 -18 -1s-14 -1 -18 -1c-16 0 -31.667 5.33301 -47 16s-23 24 -23 40c0 7.33301 2.33301 15.333 7 24c7.33301 14.667 26 24.334 56 29.001c26 4.66699 60.333 7.66699 103 9c56.667 1.33301 91.334 2.66602 104.001 3.99902l100 9c62 4 90.333 6 85 6
c23.333 0 41 -3 53 -9c28.667 -14 43 -34 43 -60z" />
    <glyph glyph-name="U" unicode="U" horiz-adv-x="676" 
d="M625 249c0 -16 -0.667969 -30.668 -2.00098 -44.001c-7.33301 -56 -35 -108 -83 -156c-24.667 -24 -47.667 -40.167 -69 -48.5s-49.666 -12.5 -84.999 -12.5c-46.667 0 -98.334 14.333 -155.001 43c-39.333 19.333 -67.833 39 -85.5 59s-32.5 46.333 -44.5 79
c-4.66699 13.333 -12.667 42.333 -24 87c-17.333 69.333 -26 149.333 -26 240c0 9.33301 -0.833008 23 -2.5 41s-2.5 31.667 -2.5 41c0 18.667 3.5 37.667 10.5 57s12.833 32 17.5 38c8.66699 11.333 20.667 17 36 17c8.66699 0 19 -2 31 -6c32.667 -10 49 -37.667 49 -83
v-24c-0.666992 -10.667 -1 -18.667 -1 -24c0 -6 0.333008 -15.167 1 -27.5s1 -21.5 1 -27.5c0 -17.333 -0.666992 -43 -2 -77s-2 -59.667 -2 -77c0 -101.333 37.333 -168.666 112 -201.999c27.333 -12.667 50.333 -19 69 -19c52 0 90.667 23.333 116 70
c10.667 18.667 16 39.334 16 62.001c0 8 -0.833008 20.167 -2.5 36.5s-2.5 28.5 -2.5 36.5c0 47.333 -4 96.333 -12 147c-2 14 -9.66699 42 -23 84c-10 32.667 -15 61.667 -15 87c0 34.667 16 52 48 52c16.667 0 30.334 -4.33301 41.001 -13
c7.33301 -5.33301 17 -16.333 29 -33c10 -13.333 17 -28.333 21 -45s7.66699 -33.334 11 -50.001c8 -34 15.333 -96.667 22 -188c5.33301 -72.667 8 -112.667 8 -120z" />
    <glyph glyph-name="V" unicode="V" horiz-adv-x="651" 
d="M624 639c0 -16 -6.00195 -41 -18.002 -75l-27 -76l-89 -295c-9.33301 -33.333 -25 -82.333 -47 -147c-10 -26 -15.333 -39.667 -16 -41c-9.33301 -16 -20.666 -24 -33.999 -24c-11.333 0 -21.666 4.33301 -30.999 13c-0.666992 1.33301 -8 10.333 -22 27
c-6.66699 8 -22 36 -46 84l-57 116l-54 107l-64 129c-13.333 24 -32.666 60.667 -57.999 110l-21 36.5c-7.33301 13 -11 24.5 -11 34.5c0 14 4.83301 26.333 14.5 37s21.5 16 35.5 16c20.667 0 42 -9.33301 64 -28c12 -10 21.667 -22.333 29 -37l22 -44l53 -120l48 -98
c34.667 -74 60.667 -139.667 78 -197c15.333 46.667 32.666 106.667 51.999 180l47 181c6 22 15.667 55 29 99l10.5 35c3.66699 12 9.5 22 17.5 30c16 15.333 31 23 45 23c16.667 0 29.667 -9 39 -27c7.33301 -14.667 11 -31 11 -49z" />
    <glyph glyph-name="W" unicode="W" horiz-adv-x="817" 
d="M780 647c0 -17.333 -3.99902 -41.667 -11.999 -73c-6 -24.667 -12.333 -49.334 -19 -74.001l-60 -285c-6 -32 -16.333 -79.667 -31 -143c-2 -10 -6 -24.333 -12 -43c-8 -19.333 -19 -29 -33 -29c-11.333 0 -21 5 -29 15c-2 2.66699 -7.66699 12.334 -17 29.001
c-5.33301 9.33301 -16 37.333 -32 84l-116 338l-57 -270c-6 -32 -16.333 -79.667 -31 -143l-12 -43c-8 -19.333 -19 -29 -33 -29c-11.333 0 -21 5 -29 15c-2 2 -7.66699 11.667 -17 29c-5.33301 8.66699 -16 36.667 -32 84l-118 341l-38 107l-14.5 36.5
c-5 13 -7.5 24.5 -7.5 34.5c0 14.667 3.83301 29.167 11.5 43.5s18.167 21.5 31.5 21.5c24.667 0 45 -13.667 61 -41c6 -10 16 -34.333 30 -73c7.33301 -26 19.5 -64.833 36.5 -116.5s40.833 -129.167 71.5 -232.5l55 295c3.33301 21.333 9.66602 53.333 18.999 96l8 36.5
c2.66699 11.667 8 23.167 16 34.5c10.667 16 23 24 37 24c12 0 27.667 -12 47 -36c8.66699 -10 21 -37 37 -81c7.33301 -26.667 19.5 -65.667 36.5 -117s40.833 -129 71.5 -233l55 295c4 21.333 10.333 53.333 19 96c2 12 4.5 24.167 7.5 36.5s7.5 22.833 13.5 31.5
c12.667 18 26 27 40 27c30.667 0 46 -29.333 46 -88z" />
    <glyph glyph-name="X" unicode="X" horiz-adv-x="680" 
d="M652 21c0 -11.333 -7.33496 -20.666 -22.002 -27.999c-12 -6.66699 -24.333 -10 -37 -10c-20.667 0 -42.334 6 -65.001 18c-11.333 6 -20.333 13.167 -27 21.5l-20 25.5l-44 69c-7.33301 11.333 -16.166 32.166 -26.499 62.499s-19.166 50.833 -26.499 61.5
c-11.333 19.333 -26 29.333 -44 30l-114 -187c-7.33301 -12.667 -19 -31.334 -35 -56.001l-14 -21c-4.66699 -6.66699 -11.667 -12.334 -21 -17.001c-17.333 -8.66699 -33.666 -13 -48.999 -13c-34 0 -51 16.333 -51 49c0 8.66699 6 21.667 18 39
c8.66699 10.667 21.334 27.334 38.001 50.001l154 231c-8.66699 15.333 -42.667 63 -102 143l-54 73c-11.333 13.333 -27.666 34 -48.999 62l-16 20c-7.33301 8.66699 -11 16 -11 22c0 11.333 6.66699 20.5 20 27.5s26 10.5 38 10.5c21.333 0 43.333 -6 66 -18
c11.333 -6 20 -12.667 26 -20l20 -27l44 -69c8 -11.333 17.167 -32.166 27.5 -62.499s18.833 -50.833 25.5 -61.5c12 -19.333 27 -29.333 45 -30l114 187c7.33301 12.667 19 31.334 35 56.001l13.5 21c4.33301 6.66699 11.5 12.334 21.5 17.001
c17.333 8.66699 33.333 13 48 13c34.667 0 52 -16.333 52 -49c0 -8.66699 -6.33301 -21.667 -19 -39c-8.66699 -10.667 -21 -27.334 -37 -50.001l-155 -231c9.33301 -15.333 43.666 -63 102.999 -143l53 -73c11.333 -13.333 27.666 -34 48.999 -62
c6 -6.66699 11.667 -13.334 17 -20.001c7.33301 -8.66699 11 -16 11 -22z" />
    <glyph glyph-name="Y" unicode="Y" horiz-adv-x="645" 
d="M631 660c0 -9.33301 -5.99902 -23.3291 -17.999 -41.9961c-8.66699 -12.667 -21.334 -32.334 -38.001 -59.001l-110 -191l-59 -99c-3.33301 -26 -8 -64.667 -14 -116c-0.666992 -16.667 -2.66699 -41.667 -6 -75c-0.666992 -12.667 -1.66699 -25.667 -3 -39
s-7.66602 -24 -18.999 -32c-15.333 -10.667 -32.333 -16 -51 -16c-37.333 0 -56 20 -56 60c0 63.333 5.66699 142.333 17 237l-14 25l-94 148l-54 86c-12 15.333 -28.667 39.666 -50 72.999l-16 22c-7.33301 10 -11 17.667 -11 23c0 11.333 6 20.666 18 27.999s24 11 36 11
c22 0 43.667 -6.66699 65 -20c11.333 -6.66699 20.166 -14.834 26.499 -24.501l18.5 -29.5l45 -80l54 -89c20.667 -35.333 36 -67 46 -95h6l117 223l36 65c4 8 8.33301 15.833 13 23.5s11.667 14.167 21 19.5c16.667 9.33301 32 14 46 14c32 0 48 -17 48 -51z" />
    <glyph glyph-name="Z" unicode="Z" horiz-adv-x="541" 
d="M514 45c0 -7.33301 -1.67285 -14.334 -5.00586 -21.001c-6 -12.667 -18 -21 -36 -25c-6 -1.33301 -21.333 -2.66602 -46 -3.99902c-28.667 -1.33301 -57.667 -2 -87 -2c-20 0 -49.667 0.5 -89 1.5s-69 1.5 -89 1.5c-9.33301 0 -22.666 -2.16699 -39.999 -6.5
s-30.666 -6.5 -39.999 -6.5c-33.333 0 -50 23 -50 69c0 30.667 9 63.334 27 98.001c8.66699 15.333 27.667 44 57 86c19.333 28 35.333 53.333 48 76c43.333 76 99 164.667 167 266c-9.33301 -1.33301 -18.333 -2 -27 -2c-7.33301 0 -18.166 0.5 -32.499 1.5
s-25.166 1.5 -32.499 1.5c-11.333 0 -28.833 0.5 -52.5 1.5s-41.5 1.5 -53.5 1.5c-6 0 -15.167 -0.5 -27.5 -1.5s-21.5 -1.5 -27.5 -1.5c-32 0 -51 5.66699 -57 17c-4 8.66699 -6 19.667 -6 33c0 48 28.667 72 86 72c2 0 18 -1 48 -3c22.667 -1.33301 56.667 -3 102 -5
c-1.33301 0 28.334 0 89.001 0c6 0 14.833 -0.333008 26.5 -1s20.5 -1 26.5 -1c4.66699 0 12 0.333008 22 1h22c36 0 54 -9 54 -27c0 -17.333 -13.333 -53.333 -40 -108l-56 -110c-12.667 -24 -35.667 -57.667 -69 -101s-56.333 -78 -69 -104
c-7.33301 -16 -15 -30.333 -23 -43c-15.333 -22.667 -31.666 -50.334 -48.999 -83.001c56 -6.66699 134 -10 234 -10c28.667 0 41.667 0.333008 39 1c14 -1.33301 25.667 -6.33301 35 -15c14 -14 21 -29.667 21 -47z" />
    <glyph glyph-name="bracketleft" unicode="[" horiz-adv-x="376" 
d="M351 668c0 -12 -9.66602 -23.3311 -28.999 -33.998c-16.667 -8.66699 -31.667 -13 -45 -13c-10.667 0 -25.334 2.33301 -44.001 7c-21.333 5.33301 -36.5 8.5 -45.5 9.5s-20.5 1.5 -34.5 1.5l1 -21c0 -47.333 -2.33301 -113.333 -7 -198
c-5.33301 -92 -8 -157.667 -8 -197c0 -50 -1 -124.667 -3 -224c0 -20 -1 -50 -3 -90c12 0 22.5 0.333008 31.5 1s23.833 4 44.5 10c18.667 4.66699 33.334 7 44.001 7c13.333 0 29 -4.83301 47 -14.5s27 -20.834 27 -33.501c0 -4.66699 -1.66699 -9.33398 -5 -14.001
c-27.333 -30 -94 -45 -200 -45c-37.333 0 -62 12 -74 36c-8 16 -12 45 -12 87c0 217.333 3.66699 409.333 11 576c2.66699 51.333 4.66699 84.333 6 99c5.33301 45.333 15 75 29 89s36.333 21 67 21c28.667 0 45 -0.666992 49 -2
c1.33301 -1.33301 4.33301 -3.66602 9 -6.99902c2.66699 -1.33301 10 -2.33301 22 -3c33.333 -1.33301 54 -3 62 -5c23.333 -4.66699 41.666 -14.334 54.999 -29.001c3.33301 -4 5 -8.66699 5 -14z" />
    <glyph glyph-name="backslash" unicode="\" horiz-adv-x="369" 
d="M355 -74c0 -26 -10.999 -39 -32.999 -39c-16.667 0 -36.334 10.333 -59.001 31c-15.333 14.667 -28 35.667 -38 63l-24 72c-10 28.667 -22.833 71.167 -38.5 127.5s-28.167 97.833 -37.5 124.5l-66 178c-34 96 -51 150 -51 162v2c0 43.333 16 65 48 65
c25.333 0 51.333 -28.333 78 -85c7.33301 -16 21 -51.667 41 -107l65 -188c5.33301 -16 35.333 -115.333 90 -298c16.667 -56 25 -92 25 -108z" />
    <glyph glyph-name="bracketright" unicode="]" horiz-adv-x="420" 
d="M364 -57c0 -42 -3.99707 -71.002 -11.9971 -87.002c-12 -24 -36.667 -36 -74 -36c-106 0 -172.667 15 -200 45c-3.33301 4.66699 -5 9.33398 -5 14.001c0 12.667 9.33301 24 28 34c16.667 9.33301 32 14 46 14c10.667 0 25.834 -2.66699 45.501 -8s34 -8.33301 43 -9
s19.5 -1 31.5 -1l-3 90c-1.33301 26.667 -2.33301 58 -3 94v129c0 30.667 -0.666992 57.667 -2 81l-10 215c-2 60 -2.66699 100.333 -2 121c-14 0 -25.5 -0.5 -34.5 -1.5s-24.167 -4.16699 -45.5 -9.5c-18.667 -4.66699 -33.334 -7 -44.001 -7
c-13.333 0 -28.333 4.33301 -45 13c-19.333 10.667 -29 22 -29 34c0 5.33301 1.66699 10 5 14c13.333 14.667 31.666 24.334 54.999 29.001c8 2 28.667 3.66699 62 5c5.33301 0 12.666 1 21.999 3c1.33301 2 4.16602 4 8.49902 6s20.833 3 49.5 3
c30.667 0 53.334 -7.33301 68.001 -22c17.333 -18 28.666 -80.333 33.999 -187c7.33301 -166.667 11 -358.667 11 -576z" />
    <glyph glyph-name="asciicircum" unicode="^" horiz-adv-x="446" 
d="M390 487c0 -10 -4.50195 -18.335 -13.502 -25.002s-18.833 -10 -29.5 -10c-26 0 -46.667 10.833 -62 32.5s-37.333 54.834 -66 99.501c-6 8 -14.333 20.333 -25 37l-44 -116l-11 -26c-4.66699 -11.333 -10.667 -19.666 -18 -24.999
c-11.333 -7.33301 -22.666 -11 -33.999 -11c-12 0 -22.167 4.16699 -30.5 12.5s-12.5 18.5 -12.5 30.5c0 8 3.33301 18.667 10 32c4.66699 10.667 9.66699 21.5 15 32.5s13 28 23 51l29 69.5c14 34 24.833 55.333 32.5 64s16.834 13 27.501 13
c20.667 0 39.667 -12.667 57 -38l69 -102l49 -65l20.5 -28.5c9 -12.333 13.5 -21.5 13.5 -27.5z" />
    <glyph glyph-name="underscore" unicode="_" horiz-adv-x="510" 
d="M455 -42c0 -5.33301 -1.00293 -10.335 -3.00293 -15.002c-6 -13.333 -33 -21.666 -81 -24.999c-63.333 -4.66699 -147.666 -7 -252.999 -7c-64 0 -96 14 -96 42c0 22 11.667 38 35 48c6.66699 2.66699 74.334 4 203.001 4c14.667 0 36.334 0.666992 65.001 2s50 2 64 2
c16 0 31 -4.66699 45 -14s21 -21.666 21 -36.999z" />
    <glyph glyph-name="grave" unicode="`" horiz-adv-x="240" 
d="M257 791c0 -12.667 -6.16602 -23.332 -18.499 -31.999s-25.166 -13 -38.499 -13c-9.33301 0 -18.833 3.33301 -28.5 10l-28.5 19c-12.667 9.33301 -32.334 22.666 -59.001 39.999c-44.667 28 -91.334 59.333 -140.001 94c-4 7.33301 -6 15.333 -6 24
c0 32.667 14.333 49 43 49c15.333 0 41.333 -11.667 78 -35c65.333 -41.333 117 -76.333 155 -105c28.667 -22 43 -39 43 -51z" />
    <glyph glyph-name="a" unicode="a" horiz-adv-x="638" 
d="M578 466c0 -5.33301 -4.99805 -81.334 -14.998 -228.001c-0.666992 -25.333 -2.33398 -63.333 -5.00098 -114l-2 -56c-2 -22 -8 -39 -18 -51c-14 -16.667 -29.333 -25 -46 -25c-23.333 0 -38.333 14.667 -45 44c-50 -34.667 -101.333 -52 -154 -52c-62 0 -116 23 -162 69
c-25.333 24.667 -46 58.334 -62 101.001c-15.333 40 -23 76.667 -23 110c0 31.333 7 66 21 104c11.333 30.667 24 55 38 73c47.333 58 109.666 87 186.999 87c65.333 0 122.333 -20.333 171 -61c8 48.667 24.667 73 50 73c18.667 0 34.167 -7.5 46.5 -22.5
s18.5 -32.167 18.5 -51.5zM445.002 234.999c0 22 -3.83203 46.334 -11.499 73.001s-17.834 48 -30.501 64c-10 12.667 -23.667 24 -41 34c-24.667 14 -46 21 -64 21c-15.333 0 -33.333 -4.33301 -54 -13c-59.333 -24.667 -88.666 -69.334 -87.999 -134.001v-15
c0 -34 9 -65 27 -93c33.333 -52.667 74.666 -79 123.999 -79c54 0 94.333 26.333 121 79c11.333 22 17 43 17 63z" />
    <glyph glyph-name="b" unicode="b" horiz-adv-x="600" 
d="M557 237c0 -70 -25.001 -129.502 -75.001 -178.502s-110 -73.5 -180 -73.5c-60 0 -110.333 19 -151 57c-4.66699 -12 -12 -23 -22 -33c-11.333 -12 -22.333 -18 -33 -18c-34 0 -51 40 -51 120c0 118 4.33301 263 13 435c2.66699 54.667 5 89.667 7 105
c6.66699 49.333 17.667 80 33 92c4.66699 4 10.667 6 18 6c32.667 0 54.334 -25 65.001 -75c0.666992 -5.33301 1 -15.666 1 -30.999c0 -18.667 -2 -68 -6 -148c36 22 78 33 126 33c60.667 0 113.667 -17.667 159 -53c28 -21.333 49.667 -46.666 65 -75.999
c20.667 -37.333 31 -91.333 31 -162zM452.999 234.998c0 55.333 -14.001 100.999 -42.001 136.999c-9.33301 12.667 -22.666 24 -39.999 34c-24.667 14 -46.334 21 -65.001 21c-26.667 0 -52 -7.83301 -76 -23.5s-42 -35.834 -54 -60.501
c-8 -17.333 -12 -41.666 -12 -72.999c0 -8 0.333008 -15.333 1 -22c0.666992 -24.667 9.33398 -50 26.001 -76c24.667 -39.333 52 -63.666 82 -72.999c12 -4 26 -6 42 -6c54 0 94.667 26.333 122 79c10.667 22 16 43 16 63z" />
    <glyph glyph-name="c" unicode="c" horiz-adv-x="563" 
d="M534 170c0 -11.333 -3.66699 -22.501 -11 -33.501l-21 -32.5c-22.667 -34 -53.167 -61.667 -91.5 -83s-76.5 -32 -114.5 -32c-43.333 0 -86.666 15.667 -129.999 47c-22.667 16.667 -45.334 42.667 -68.001 78c-38 56.667 -56.667 116.334 -56 179.001v4
c0 90 32.667 164 98 222c12.667 11.333 26 20 40 26c19.333 6.66699 46.666 10 81.999 10c15.333 0 29.333 -0.666992 42 -2c38.667 -4 72.667 -12.667 102 -26c22.667 -10.667 35.667 -17 39 -19c11.333 -7.33301 21.333 -18 30 -32c6 -10.667 9 -21 9 -31
c0 -13.333 -6 -25.166 -18 -35.499s-25.333 -15.5 -40 -15.5c-12.667 0 -32.667 10.167 -60 30.5s-53.666 30.5 -78.999 30.5c-38 0 -69 -19.667 -93 -59c-20 -34 -30 -71.333 -30 -112c0 -44 10.667 -81.333 32 -112c24.667 -35.333 58 -53 100 -53c38 0 76 22 114 66
c25.333 30 51.333 45 78 45c14 0 25.167 -6.33301 33.5 -19s12.5 -26.334 12.5 -41.001z" />
    <glyph glyph-name="d" unicode="d" horiz-adv-x="629" 
d="M564 600c0 -171.333 -3.99902 -321.664 -11.999 -450.997c-2.66699 -44.667 -4.66699 -71 -6 -79c-4.66699 -36 -13.667 -59.333 -27 -70c-9.33301 -6.66699 -18.333 -10 -27 -10c-10.667 0 -21.334 6 -32.001 18c-9.33301 10 -16 21 -20 33l-22 -22.5
c-7.33301 -7.66699 -17 -13.834 -29 -18.501c-24.667 -10 -50.667 -15 -78 -15c-72 0 -133.5 24.167 -184.5 72.5s-76.5 108.166 -76.5 179.499c0 70.667 10.333 124.667 31 162c16 29.333 37.667 54.666 65 75.999c45.333 35.333 99 53 161 53
c19.333 0 42.333 -3.33301 69 -10c29.333 -6.66699 51.333 -14.667 66 -24v93c0.666992 46 2.66699 74.667 6 86c14 50 37 75 69 75c31.333 0 47 -49.333 47 -148zM441.001 296.002c0 55.333 -28.665 94.668 -85.998 118.001c-20.667 8.66699 -38.334 13 -53.001 13
c-18.667 0 -40.334 -7 -65.001 -21c-28.667 -16.667 -50 -42.667 -64 -78c-12 -30.667 -18 -61.334 -18 -92.001c0 -36.667 13.167 -69.667 39.5 -99s57.5 -44 93.5 -44c52.667 0 95.667 26.333 129 79c16 26 24 67.333 24 124z" />
    <glyph glyph-name="e" unicode="e" horiz-adv-x="584" 
d="M542 169c0 -10.667 -3.50098 -21.501 -10.501 -32.501l-21.5 -32.5c-22.667 -34 -53.334 -61.833 -92.001 -83.5s-76 -32.5 -112 -32.5c-43.333 0 -87 16 -131 48c-22.667 16.667 -45.667 42.667 -69 78c-37.333 56.667 -56 116.667 -56 180v3
c0 92.667 32.667 166.667 98 222c9.33301 8 30 17.333 62 28c14 4.66699 33.333 7 58 7c22.667 0 43.334 -1.33301 62.001 -4c16 -2 43 -16.333 81 -43l41 -26c8.66699 -6.66699 18.667 -19.667 30 -39c28 -47.333 43 -75.666 45 -84.999c4 -6 6 -14.333 6 -25
c0 -33.333 -19.667 -55 -59 -65c-41.333 -10 -83 -18 -125 -24c-37.333 -6.66699 -93 -16 -167 -28c22.667 -65.333 63.667 -98 123 -98c24.667 0 46.667 6.33301 66 19c13.333 9.33301 30 25.333 50 48c24.667 29.333 50.334 44 77.001 44c13.333 0 24 -6.16699 32 -18.5
s12 -25.833 12 -40.5zM412.999 366.999c-8 16.667 -23 35 -45 55s-41 31.333 -57 34h-14c-63.333 0 -104 -43.333 -122 -130c21.333 4.66699 53.333 11 96 19c32 4.66699 79.333 12 142 22z" />
    <glyph glyph-name="f" unicode="f" horiz-adv-x="473" 
d="M463 667c0 -12.667 -4.33203 -24.1709 -12.999 -34.5039s-19.334 -15.5 -32.001 -15.5c-10.667 0 -20 3.66699 -28 11s-16.333 11 -25 11c-14.667 0 -30 -4 -46 -12c-19.333 -10.667 -33 -30 -41 -58l-16 -73l72 9c4 0.666992 12.667 2 26 4c11.333 2 20.333 3 27 3
c15.333 0 29 -5.33301 41 -16s18 -23.667 18 -39c0 -24 -20.667 -39.667 -62 -47c-35.333 -6.66699 -78.666 -13 -129.999 -19c-5.33301 -82 -8 -125 -8 -129c0 -8.66699 0.5 -22 1.5 -40s1.5 -31.333 1.5 -40c0 -19.333 -1.33301 -46.666 -4 -81.999
c-2.66699 -42.667 -6 -68 -10 -76c-11.333 -22 -25.333 -33 -42 -33c-8.66699 0 -17.667 3.66699 -27 11c-14 10.667 -22.333 31 -25 61c-0.666992 23.333 -1.66699 46.666 -3 69.999c-3.33301 36.667 -5 73 -5 109c0 40.667 2 86.334 6 137.001
c-21.333 -2.66699 -38 -4 -50 -4c-45.333 0 -68 15 -68 45c0 28 16 46.667 48 56c10.667 3.33301 38.667 7 84 11c9.33301 50.667 17.333 88.334 24 113.001c14.667 52 31.667 84.333 51 97c8.66699 8 23 18 43 30c21.333 8.66699 42.333 13 63 13c40 0 67 -4.66699 81 -14
c13.333 -3.33301 24.666 -10.666 33.999 -21.999s14 -23.666 14 -36.999z" />
    <glyph glyph-name="g" unicode="g" horiz-adv-x="633" 
d="M585 466c0 -5.33301 -5.00391 -81.3359 -15.0039 -228.003c-0.666992 -8 -1.66699 -61.333 -3 -160c0 -14.667 -1 -36 -3 -64c-0.666992 -8 -5.66699 -22.667 -15 -44c-32.667 -78.667 -69.667 -133 -111 -163c-43.333 -31.333 -86.666 -47 -129.999 -47
c-37.333 0 -75.166 10.833 -113.499 32.5s-68.833 49.5 -91.5 83.5l-21 30c-7.33301 12.667 -11 24.334 -11 35.001c0 14.667 4.16699 28.334 12.5 41.001s19.5 19 33.5 19c26 0 51.667 -14.667 77 -44c20 -22.667 36.667 -38.667 50 -48c18.667 -12 40.334 -18 65.001 -18
c38.667 0 69.334 14 92.001 42c16 20.667 30 52.667 42 96c-48 -30 -95.333 -45 -142 -45c-62.667 0 -117 23 -163 69c-25.333 24.667 -46 58.334 -62 101.001c-15.333 40 -23 76.667 -23 110c0 31.333 7 66 21 104c11.333 30.667 24 55 38 73c46.667 58 109 87 187 87
c65.333 0 122.333 -20.333 171 -61c8 48.667 24.667 73 50 73c18.667 0 34.167 -7.5 46.5 -22.5s18.5 -32.167 18.5 -51.5zM451.996 234.997c0 22 -4 46.334 -12 73.001s-18 48 -30 64c-10 12.667 -23.667 24 -41 34c-24.667 14 -46 21 -64 21
c-15.333 0 -33.333 -4.33301 -54 -13c-59.333 -24.667 -88.666 -69.334 -87.999 -134.001v-15c0 -34 9 -65 27 -93c33.333 -52.667 74.666 -79 123.999 -79c54 0 94.333 26.333 121 79c11.333 22 17 43 17 63z" />
    <glyph glyph-name="h" unicode="h" horiz-adv-x="559" 
d="M513 270c0 -24 -2.33105 -67.3311 -6.99805 -129.998c-4.66699 -71.333 -9.33398 -110.333 -14.001 -117c-13.333 -22.667 -31 -34 -53 -34c-28.667 0 -43 21.667 -43 65c0 6.66699 0.333008 16.167 1 28.5s1.33398 21.5 2.00098 27.5
c-0.666992 11.333 -0.333984 28.333 0.999023 51c3.33301 53.333 5 80.666 5 81.999c0 19.333 -3.5 42 -10.5 68s-15.5 46.333 -25.5 61c-8 12 -19.333 23.333 -34 34c-20 14 -35.667 21 -47 21c-15.333 0 -30.833 -4 -46.5 -12s-31.334 -22.833 -47.001 -44.5
s-24.5 -40.5 -26.5 -56.5c-1.33301 -8.66699 -2 -26.334 -2 -53.001c0 -22.667 -2.66699 -64.334 -8 -125.001c-5.33301 -67.333 -10.333 -104.666 -15 -111.999c-14.667 -22 -30 -33 -46 -33c-34 0 -51 39.667 -51 119c0 119.333 4.33301 264.666 13 435.999
c3.33301 54.667 5.66602 89.667 6.99902 105c6.66699 49.333 17.667 80 33 92c4.66699 4 10.667 6 18 6c32.667 0 54.334 -25 65.001 -75c0.666992 -5.33301 1 -15.666 1 -30.999c0 -18.667 -2 -68 -6 -148c36.667 22 72.667 33 108 33h4
c52 -0.666992 98.333 -18.334 139 -53.001c24 -21.333 43.333 -46.666 58 -75.999c18 -36 27 -79 27 -129z" />
    <glyph glyph-name="i" unicode="i" horiz-adv-x="251" 
d="M205 666c0 -16 -5.83203 -30.6689 -17.499 -44.002s-25.834 -20 -42.501 -20c-22 0 -39.167 8.33301 -51.5 25s-18.5 36.334 -18.5 59.001c0 18.667 5.66699 34.334 17 47.001s26.333 19 45 19c22 0 39.333 -9 52 -27c10.667 -16 16 -35.667 16 -59zM188.001 465.998
c0 -30.667 -1.99902 -68.667 -5.99902 -114c-2.66699 -38 -5.66699 -76 -9 -114c-0.666992 -25.333 -2.33398 -63.333 -5.00098 -114l-2 -56c-1.33301 -22 -7.33301 -39 -18 -51c-13.333 -16.667 -28.333 -25 -45 -25c-33.333 0 -50 30 -50 90
c0 68.667 4.66699 170.667 14 306c2 40 4.33301 66.667 7 80c6 36 16.333 58.333 31 67c5.33301 3.33301 11.333 5 18 5c18.667 0 34.167 -7.5 46.5 -22.5s18.5 -32.167 18.5 -51.5z" />
    <glyph glyph-name="j" unicode="j" horiz-adv-x="425" 
d="M376 666c0 -16 -6 -30.6689 -18 -44.002s-26 -20 -42 -20c-22.667 0 -40.167 8.33301 -52.5 25s-18.5 36.334 -18.5 59.001c0 18.667 5.83301 34.334 17.5 47.001s26.5 19 44.5 19c22 0 39 -8.5 51 -25.5s18 -37.167 18 -60.5zM374 255.998
c0 -213.333 -22.333 -352.668 -67 -418.001c-6 -9.33301 -15 -17.666 -27 -24.999c-8.66699 -8 -23 -18.333 -43 -31c-20.667 -8 -42 -12 -64 -12c-39.333 0 -66.333 4.66699 -81 14c-12.667 3.33301 -23.667 10.5 -33 21.5s-14 23.5 -14 37.5c0 13.333 4.5 25 13.5 35
s20.167 15 33.5 15c9.33301 0 17.833 -3.66699 25.5 -11s16.167 -11 25.5 -11c15.333 0 30.333 4 45 12s28.5 22.833 41.5 44.5s19.5 40.5 19.5 56.5c0 20.667 3 84.667 9 192c2.66699 44 4 65.667 4 65c0 9.33301 -0.5 23.333 -1.5 42s-1.5 32.667 -1.5 42
c0 18.667 1.33301 46.667 4 84c2.66699 44.667 6 70 10 76c12.667 22.667 26.667 34 42 34c8.66699 0 17.667 -3.66699 27 -11c14 -10.667 22.333 -31 25 -61l2 -70c3.33301 -36 5 -76.333 5 -121z" />
    <glyph glyph-name="k" unicode="k" horiz-adv-x="479" 
d="M445 52c0 -11.333 -6.16797 -21.501 -18.501 -30.501s-24.5 -13.5 -36.5 -13.5c-5.33301 0 -11.5 1 -18.5 3s-40.833 26.333 -101.5 73c-73.333 58 -110.333 87.333 -111 88l-2 -77c-2 -32.667 -8.33301 -56.667 -19 -72c-14.667 -21.333 -30 -32 -46 -32
c-34 0 -51 38 -51 114c0 53.333 1.66699 129.333 5 228c1.33301 48 4.33301 120 9 216c2.66699 56.667 5.33398 93.667 8.00098 111c9.33301 54.667 25.666 82 48.999 82c20 0 36.667 -11 50 -33c11.333 -18 17 -41.667 17 -71c0 -31.333 -3.66699 -115 -11 -251l140 113
c44 34 75.333 51 94 51c12 0 21.833 -5.33301 29.5 -16s11.5 -22.667 11.5 -36c0 -9.33301 -2.66699 -19.666 -8 -30.999c-3.33301 -6 -60.333 -51.667 -171 -137c-15.333 -13.333 -38.666 -32 -69.999 -56c8.66699 -6 34 -24.667 76 -56l102 -78
c48.667 -38 73 -67.667 73 -89z" />
    <glyph glyph-name="l" unicode="l" horiz-adv-x="263" 
d="M213 637c0 -22 -5.33301 -133.333 -16 -334c-0.666992 -32 -2.33398 -80 -5.00098 -144l-2 -70c-1.33301 -28.667 -7.33301 -50.667 -18 -66c-14.667 -21.333 -30 -32 -46 -32c-34 0 -51 38 -51 114c0 53.333 1.66699 129.333 5 228l9 216
c2.66699 56.667 5.33398 93.667 8.00098 111c9.33301 54.667 25.333 82 48 82c18 0 33.833 -9 47.5 -27s20.5 -44 20.5 -78z" />
    <glyph glyph-name="m" unicode="m" horiz-adv-x="913" 
d="M866 268c0 -24 -1.99805 -67.3398 -5.99805 -130.007c-5.33301 -70.667 -10 -109.667 -14 -117c-13.333 -22.667 -31 -34 -53 -34c-29.333 0 -44 22 -44 66c0 6 0.5 15.167 1.5 27.5s1.5 21.5 1.5 27.5c0 14.667 1 36.834 3 66.501s3 52.167 3 67.5
c0 18.667 -3.33301 41 -10 67s-15 46.333 -25 61c-8 12 -19.667 23.333 -35 34c-20 14 -35.333 21 -46 21c-15.333 0 -31.333 -4 -48 -12c-6.66699 -3.33301 -18.334 -13.666 -35.001 -30.999c-22 -23.333 -34.667 -46.666 -38 -69.999
c0 -0.666992 -0.666992 -22.667 -2 -66c-0.666992 -24.667 -3.33398 -63.667 -8.00098 -117c-5.33301 -64 -10.333 -99.333 -15 -106c-13.333 -22 -31.333 -33 -54 -33c-32 0 -48 21.333 -48 64c0 6.66699 0.5 16.167 1.5 28.5s1.5 21.5 1.5 27.5c0 15.333 1 38.333 3 69
s3 53.667 3 69c0 2.66699 -1 11.334 -3 26.001c-9.33301 62.667 -31.666 106.667 -66.999 132c-19.333 14 -34.666 21 -45.999 21c-15.333 0 -30.833 -4 -46.5 -12s-31.5 -22.833 -47.5 -44.5s-25 -40.5 -27 -56.5c0 -1.33301 -0.666992 -23.333 -2 -66
c-0.666992 -24.667 -3.33398 -64 -8.00098 -118c-5.33301 -63.333 -10.333 -98.666 -15 -105.999c-14 -22 -29.333 -33 -46 -33c-33.333 0 -50 40 -50 120c0 66.667 1.66699 146.334 5 239.001c2 21.333 4.66699 53.333 8 96c1.33301 24 3.66602 41.333 6.99902 52
c6 22 16.667 33.667 32 35h17c19.333 0 32.666 -4.66699 39.999 -14l22 -34c10 12.667 26.333 23.334 49 32.001c20 7.33301 39.333 11 58 11c54.667 0 102.334 -17.667 143.001 -53c16.667 -14 29.667 -28 39 -42c16 20 38 36.667 66 50c9.33301 8 25 18.333 47 31
c22 8 42.333 12 61 12h3c52.667 0 99 -17.667 139 -53c24.667 -21.333 44 -46.333 58 -75c18 -36.667 27 -80 27 -130z" />
    <glyph glyph-name="n" unicode="n" horiz-adv-x="556" 
d="M512 270c0 -24 -1.99707 -67.3369 -5.99707 -130.004c-5.33301 -71.333 -10 -110.333 -14 -117c-13.333 -22.667 -31 -34 -53 -34c-29.333 0 -44 21.667 -44 65c0 6.66699 0.5 16.167 1.5 28.5s1.5 21.5 1.5 27.5c0 14.667 1 36.834 3 66.501s3 51.834 3 66.501
c0 19.333 -3.33301 42 -10 68s-15 46.333 -25 61c-8 12 -19.667 23.333 -35 34c-19.333 14 -34.666 21 -45.999 21c-15.333 0 -30.833 -4 -46.5 -12s-31.5 -22.833 -47.5 -44.5s-25 -40.5 -27 -56.5c0 -1.33301 -0.666992 -23.333 -2 -66
c-0.666992 -24.667 -3.33398 -64 -8.00098 -118c-5.33301 -63.333 -10.333 -98.666 -15 -105.999c-14 -22 -29 -33 -45 -33c-34 0 -51 40 -51 120c0 68.667 1.66699 148.334 5 239.001c2 21.333 4.66699 53.333 8 96c1.33301 24 3.66602 41.333 6.99902 52
c6 21.333 16.667 33 32 35h17c19.333 0 32.666 -4.33301 39.999 -13l22 -35c22.667 28.667 60 43 112 43c42.667 0 81.167 -11.5 115.5 -34.5s61.166 -54.5 80.499 -94.5c18 -36 27 -79 27 -129z" />
    <glyph glyph-name="o" unicode="o" horiz-adv-x="594" 
d="M550 237c0 -69.333 -25.332 -128.835 -75.999 -178.502s-110.667 -74.5 -180 -74.5c-62.667 0 -117 23 -163 69c-24.667 24.667 -45.334 58.334 -62.001 101.001c-14.667 38.667 -22 75 -22 109c0 33.333 6.66699 68.333 20 105c11.333 30.667 24.333 55 39 73
c46.667 58 109.667 87 189 87c60.667 0 113.667 -17.667 159 -53c27.333 -21.333 49 -46.666 65 -75.999c20.667 -37.333 31 -91.333 31 -162zM445.001 234.998c0 22 -3.83105 46.334 -11.498 73.001s-17.5 48 -29.5 64c-10 12.667 -23.667 24 -41 34
c-24.667 14 -46.334 21 -65.001 21c-14.667 0 -32.334 -4.33301 -53.001 -13c-60 -24.667 -89.667 -69.334 -89 -134.001v-15c0.666992 -34 9.66699 -65 27 -93c33.333 -52.667 74.666 -79 123.999 -79c54.667 0 95.334 26.333 122.001 79c10.667 22 16 43 16 63z" />
    <glyph glyph-name="p" unicode="p" horiz-adv-x="605" 
d="M562 277c0 -70.667 -10.333 -124.999 -31 -162.999c-16 -28.667 -37.667 -53.667 -65 -75c-45.333 -35.333 -99 -53 -161 -53c-19.333 0 -42.333 3.33301 -69 10c-29.333 6.66699 -51 14.334 -65 23.001c-0.666992 -30.667 -1 -61.334 -1 -92.001
c-0.666992 -46 -2.66699 -75 -6 -87c-14 -49.333 -37 -74 -69 -74c-30.667 0 -46 49.333 -46 148c0 171.333 3.66699 321.666 11 450.999c2.66699 44.667 4.66699 71 6 79c4.66699 36 14 59 28 69c9.33301 7.33301 18 11 26 11c11.333 0 21.833 -5.5 31.5 -16.5
s16.5 -22.5 20.5 -34.5l22.5 22c7.66699 7.33301 17.167 13.666 28.5 18.999c24.667 10 50.667 15 78 15c72 0 133.5 -24.167 184.5 -72.5s76.5 -108.166 76.5 -179.499zM458 279.001c0 20 -5.66699 40.667 -17 62c-26.667 52.667 -67 79 -121 79
c-50 0 -91.333 -26 -124 -78c-16.667 -26 -25 -67.667 -25 -125c0 -54.667 28.667 -94 86 -118c20.667 -8.66699 38.667 -13 54 -13c18 0 39.333 7.33301 64 22c17.333 10 31 21.333 41 34c28 35.333 42 81 42 137z" />
    <glyph glyph-name="q" unicode="q" horiz-adv-x="637" 
d="M568 400c0 -118 -4.66504 -263.333 -13.998 -436c-2.66699 -54 -5 -88.667 -7 -104c-6 -49.333 -16.667 -80 -32 -92c-4.66699 -4 -10.667 -6 -18 -6c-33.333 0 -55 25 -65 75c-1.33301 5.33301 -2 15.333 -2 30c0 20 2 69.667 6 149c-36 -22 -78 -33 -126 -33
c-60.667 0 -113.667 17.667 -159 53c-27.333 21.333 -49 46.333 -65 75c-20.667 38 -31 92.333 -31 163c0 70 25.167 129.5 75.5 178.5s110.5 73.5 180.5 73.5c59.333 0 109.666 -19 150.999 -57c4.66699 12 12.167 23.5 22.5 34.5s21.166 16.5 32.499 16.5
c34 0 51 -40 51 -120zM448.002 240v22.998c-0.666992 24 -9.33398 49.333 -26.001 76c-22 34.667 -45.333 57.334 -70 68.001c-15.333 6.66699 -34.666 10 -57.999 10c-36 0 -67.333 -14.5 -94 -43.5s-40 -61.5 -40 -97.5c0 -9.33301 1.33301 -22.333 4 -39
c10 -63.333 36 -107.333 78 -132c24 -14 45.333 -21 64 -21c27.333 0 53 7.83301 77 23.5s41.667 35.834 53 60.501c8 16.667 12 40.667 12 72z" />
    <glyph glyph-name="r" unicode="r" horiz-adv-x="409" 
d="M391 461c0 -15.333 -6.3291 -28.667 -18.9961 -40s-27 -17 -43 -17c-4 0 -8 0.666992 -12 2c-20 14 -35.667 21 -47 21c-14.667 0 -29.834 -4 -45.501 -12s-31.5 -22.833 -47.5 -44.5s-25 -40.5 -27 -56.5c0 -1.33301 -0.666992 -23.333 -2 -66
c-0.666992 -24.667 -3.33398 -63.667 -8.00098 -117c-5.33301 -64 -10.333 -99.667 -15 -107c-14 -22 -29.333 -33 -46 -33c-34 0 -51 39.667 -51 119c0 66.667 1.66699 146.667 5 240c2.66699 21.333 5.66699 53.333 9 96c1.33301 24 3.66602 41.333 6.99902 52
c6 22 16.667 33.667 32 35h17c19.333 0 32.666 -4.66699 39.999 -14l22 -34c22 28.667 59 43 111 43c40 0 66.667 -4.66699 80 -14c26.667 -7.33301 40 -25 40 -53z" />
    <glyph glyph-name="s" unicode="s" horiz-adv-x="481" 
d="M440 177c0 -26.667 -9.16699 -54.5039 -27.5 -83.5039s-42.166 -54.5 -71.499 -76.5c-33.333 -25.333 -64.666 -38 -93.999 -38c-30.667 0 -59 7.66699 -85 23c-44 26 -76 55.333 -96 88c-13.333 22.667 -20 40.334 -20 53.001c0 36 14.667 54 44 54
c8 0 15.667 -1.66699 23 -5c11.333 -4.66699 19 -12.667 23 -24c6 -16.667 10.333 -26.667 13 -30c26 -34 54.667 -51 86 -51c17.333 0 32.666 4 45.999 12c38 24.667 57 53 57 85c0 20 -6.66699 34.667 -20 44l-46 22l-84 31c-12 5.33301 -23.667 10.833 -35 16.5
s-21.666 13.834 -30.999 24.501c-22 26 -33 57.667 -33 95s16.333 67 49 89c29.333 20 63.333 30 102 30c53.333 0 94.666 -12.667 123.999 -38c17.333 -14.667 26 -28.667 26 -42c0 -12 -6.5 -23.667 -19.5 -35s-25.5 -17 -37.5 -17c-10.667 0 -21.667 6.33301 -33 19
c-8.66699 9.33301 -28.334 14 -59.001 14c-11.333 0 -20.833 -3.66699 -28.5 -11s-11.5 -16.666 -11.5 -27.999c0 -9.33301 6.33301 -15.666 19 -18.999s31 -9.33301 55 -18c16 -6 39 -16.667 69 -32c64 -39.333 96 -90 96 -152z" />
    <glyph glyph-name="t" unicode="t" horiz-adv-x="483" 
d="M454 507c0 -24 -21.0029 -39.835 -63.0029 -47.502s-94.333 -14.834 -157 -21.501c-2 -11.333 -3 -42.666 -3 -93.999c0 -15.333 -0.333008 -38.333 -1 -69v-69c0 -25.333 8 -49.333 24 -72c4.66699 -7.33301 14.334 -18 29.001 -32c16.667 -10.667 32.667 -16 48 -16
c7.33301 0 15 3.16699 23 9.5s15.667 9.5 23 9.5c13.333 0 24.333 -5 33 -15s13 -21.667 13 -35c0 -14.667 -5 -27.5 -15 -38.5s-22 -17.833 -36 -20.5c-12 -6.66699 -27.667 -10 -47 -10c-38.667 0 -71 6 -97 18c-8.66699 8 -22.334 19.333 -41.001 34
c-46.667 34 -70 128.667 -70 284c0 32.667 1 67.334 3 104.001c-9.33301 -0.666992 -17.666 -1 -24.999 -1c-44.667 0 -67 15 -67 45c0 24.667 11.667 42 35 52c11.333 4.66699 33.666 8.66699 66.999 12l4 23c2 23.333 4.33301 46.333 7 69c4.66699 30 14.334 50 29.001 60
c9.33301 5.33301 18 8 26 8c16.667 0 30.334 -12 41.001 -36c4.66699 -9.33301 6.33398 -47.666 5.00098 -114.999c22 3.33301 55.333 7.33301 100 12c4 0.666992 12.667 2 26 4c10.667 2 19.334 3 26.001 3c15.333 0 29.166 -5.33301 41.499 -16s18.5 -23.667 18.5 -39z
" />
    <glyph glyph-name="u" unicode="u" horiz-adv-x="590" 
d="M521 405c0 -68.667 -1.66895 -148.33 -5.00195 -238.997l-9 -96c-1.33301 -24 -3.66602 -41.333 -6.99902 -52c-6 -21.333 -16.667 -33 -32 -35c-4.66699 -0.666992 -10.334 -1 -17.001 -1c-19.333 0 -32.666 4.66699 -39.999 14l-22 35c-22 -28.667 -59 -43 -111 -43
c-42.667 0 -81.334 11.5 -116.001 34.5s-61.667 54.5 -81 94.5c-18 36 -27 79 -27 129c0 24 2.33301 67.333 7 130c4.66699 71.333 9 110.333 13 117c13.333 22.667 31.333 34 54 34c28.667 0 43 -21.667 43 -65c0 -6.66699 -0.5 -16.167 -1.5 -28.5s-1.5 -21.5 -1.5 -27.5
c0 -14.667 -1 -36.834 -3 -66.501s-3 -51.834 -3 -66.501c0 -19.333 3.5 -42 10.5 -68s15.167 -46.333 24.5 -61c8 -12 19.667 -23.333 35 -34c20 -14 35.667 -21 47 -21c15.333 0 30.833 4 46.5 12s31.334 22.833 47.001 44.5s24.5 40.5 26.5 56.5
c0 1.33301 0.666992 23.333 2 66c0.666992 24.667 3.33398 64 8.00098 118c5.33301 63.333 10.333 98.666 15 105.999c14 22 29.333 33 46 33c34 0 51 -40 51 -120z" />
    <glyph glyph-name="v" unicode="v" horiz-adv-x="554" 
d="M513 481c0 -10.667 -3.66602 -26.6689 -10.999 -48.002c-14 -38 -33.667 -95.667 -59 -173l-33 -111c-6.66699 -25.333 -18.334 -63 -35.001 -113c-8 -20.667 -13.333 -33 -16 -37c-8 -12.667 -18.667 -19 -32 -19s-29.333 11.333 -48 34c-6 6.66699 -18 28.667 -36 66
l-84 170c-22 38 -53 96 -93 174l-16 27c-6 12 -9 22 -9 30c0 14 4.66699 26.167 14 36.5s20.666 15.5 33.999 15.5c34 0 61 -18.333 81 -55l56 -126c21.333 -40 50 -101.333 86 -184c6.66699 22.667 28.334 100.334 65.001 233.001c4 16.667 11 42 21 76
c3.33301 9.33301 6.5 18.833 9.5 28.5s8.16699 18.167 15.5 25.5c14 13.333 27.667 20 41 20c16 0 28.667 -8 38 -24c7.33301 -13.333 11 -28.666 11 -45.999z" />
    <glyph glyph-name="w" unicode="w" horiz-adv-x="794" 
d="M753 492c0 -10.667 -3.33496 -26.666 -10.002 -47.999c-11.333 -38 -27.333 -94.667 -48 -170c-11.333 -50 -30.333 -123.667 -57 -221c-6.66699 -20.667 -11.334 -33.334 -14.001 -38.001c-7.33301 -14 -17.333 -21 -30 -21s-27.334 12 -44.001 36
c-5.33301 7.33301 -15.666 29.333 -30.999 66l-69 167l-39 85c-6 -20 -14.333 -49.667 -25 -89c-11.333 -49.333 -30.333 -123 -57 -221c-7.33301 -20.667 -12 -33 -14 -37c-7.33301 -14 -17.333 -21 -30 -21c-13.333 0 -28 11.667 -44 35
c-5.33301 7.33301 -15.666 29.333 -30.999 66l-70 167c-18 38 -43.333 95 -76 171l-14 30.5c-4.66699 10.333 -7 19.833 -7 28.5c0 14 4 26.667 12 38s19 17 33 17c30 0 53.667 -19 71 -57l47 -124c16 -36 38 -90.667 66 -164l49 212c3.33301 16.667 9.33301 41.667 18 75
c2 10 4.33301 19.833 7 29.5s7.33398 18.167 14.001 25.5c12.667 14 25 21 37 21c12.667 0 26.667 -7 42 -21c13.333 -12.667 23 -25.667 29 -39c10 -28 25.667 -69.333 47 -124l30 -74c8.66699 -19.333 20.667 -49.333 36 -90c4.66699 18 21 88.333 49 211l18 76l8 29
c2.66699 10 7.33398 18.667 14.001 26c12 14 24.333 21 37 21c16 0 28 -9 36 -27c6.66699 -13.333 10 -29 10 -47z" />
    <glyph glyph-name="x" unicode="x" horiz-adv-x="563" 
d="M532 14c0 -11.333 -5.83301 -20.167 -17.5 -26.5s-23.5 -9.5 -35.5 -9.5c-33.333 0 -60.333 10.667 -81 32c-2.66699 2.66699 -20 27.334 -52 74.001c-16 20 -37 49.333 -63 88c-1.33301 -2 -27 -43.333 -77 -124l-17.5 -26.5
c-7.66699 -11.667 -16.5 -19.834 -26.5 -24.501c-14 -6 -27.333 -9 -40 -9c-36.667 0 -55 15 -55 45c0 9.33301 5.33301 21.333 16 36l25 33l39 52c15.333 26 40.333 63 75 111l-51 71c-14.667 20 -46 59 -94 117l-30 39c-6.66699 8 -10 15 -10 21
c0 11.333 6.33301 20.333 19 27c10.667 6 21.667 9 33 9c34 0 61.333 -10.667 82 -32c2.66699 -2.66699 19.667 -27.334 51 -74.001c16.667 -20 38 -49.333 64 -88c1.33301 2 27 43.333 77 124l17.5 26.5c7.66699 11.667 16.5 19.834 26.5 24.501c14 6 27.333 9 40 9
c36.667 0 55 -15 55 -45c0 -9.33301 -5.33301 -21.333 -16 -36c-8.66699 -10.667 -17.167 -21.667 -25.5 -33l-38.5 -52c-15.333 -26 -40.333 -63 -75 -111l51 -71c14.667 -20 46 -59 94 -117l30 -39c6.66699 -8 10 -15 10 -21z" />
    <glyph glyph-name="y" unicode="y" horiz-adv-x="633" 
d="M582 466c0 -6 -4.99707 -82.0029 -14.9971 -228.003c0 -6.66699 -1 -60 -3 -160c0.666992 -14.667 0 -36 -2 -64c-0.666992 -8 -5.66699 -22.667 -15 -44c-32.667 -78.667 -69.667 -133 -111 -163c-43.333 -31.333 -86.666 -47 -129.999 -47
c-38 0 -76.167 10.833 -114.5 32.5s-68.5 49.5 -90.5 83.5c-7.33301 10 -14.5 20.667 -21.5 32s-10.5 23 -10.5 35c0 14.667 4.16699 28 12.5 40s19.5 18 33.5 18c26 0 51.667 -14.667 77 -44c19.333 -22.667 35.666 -38.667 48.999 -48c19.333 -12 41 -18 65 -18
c39.333 0 70 14 92 42c16.667 20.667 30.667 52.667 42 96c-48 -30 -95 -45 -141 -45c-62.667 0 -117.334 23 -164.001 69c-24.667 24.667 -45.334 58.334 -62.001 101.001c-14.667 38.667 -22 76.334 -22 113.001c0 3.33301 3 37 9 101c2 18 4.66699 45 8 81
c0 7.33301 0.666992 18 2 32c4 36 14.333 58.667 31 68c5.33301 3.33301 11.333 5 18 5c18.667 0 34.167 -7.5 46.5 -22.5s18.5 -32.167 18.5 -51.5c0 -28 -2.66699 -69.667 -8 -125s-8 -96.666 -8 -123.999c0 -22.667 9.33301 -47.167 28 -73.5s39 -44.166 61 -53.499
c16 -7.33301 34 -11 54 -11c33.333 0 63 11.667 89 35s41.667 51.333 47 84c1.33301 7.33301 2 18.666 2 33.999c0 2 1 11.667 3 29l6 74c2 18.667 4.66699 47 8 85c0 7.33301 0.666992 18.333 2 33c5.33301 48.667 21.666 73 48.999 73c19.333 0 35 -7.5 47 -22.5
s18 -32.167 18 -51.5z" />
    <glyph glyph-name="z" unicode="z" horiz-adv-x="554" 
d="M529 34c0 -5.33301 -1.66895 -10.666 -5.00195 -15.999c-7.33301 -12.667 -35 -19.667 -83 -21c-29.333 -1.33301 -58.666 -2 -87.999 -2c-20 0 -49.5 0.333008 -88.5 1s-68.167 1 -87.5 1c-9.33301 0 -22.833 -1.66699 -40.5 -5s-30.834 -5 -39.501 -5
c-34 0 -51 17.333 -51 52c0 23.333 10 48.666 30 75.999c7.33301 10 25.333 30.667 54 62c34 36.667 71.333 83.667 112 141l104 146c-22 -1.33301 -34.333 -2 -37 -2c-6 0 -15.167 0.666992 -27.5 2s-21.5 2 -27.5 2h-53c-23.333 0.666992 -41 1 -53 1
c-6 0 -15.333 -0.333008 -28 -1h-28c-24.667 0 -41.167 2.33301 -49.5 7s-12.5 14.667 -12.5 30c0 36 28.667 54 86 54c18.667 0 43.667 -1 75 -3c36.667 -2 61.667 -3 75 -3c-2 0 27.667 0 89 0c5.33301 0 14 -0.333008 26 -1h26c44 0 62.667 0 56 0
c28 -1.33301 42 -8 42 -20c0 -13.333 -13.333 -40.666 -40 -81.999l-56 -82c-13.333 -20 -36 -50 -68 -90s-55 -71.333 -69 -94c-6.66699 -10.667 -13.667 -20.334 -21 -29.001c-16 -18 -33.333 -40 -52 -66c50.667 -4 138.334 -6 263.001 -6
c16.667 0 31.334 -3.66699 44.001 -11c15.333 -8.66699 23 -20.667 23 -36z" />
    <glyph glyph-name="braceleft" unicode="{" horiz-adv-x="376" 
d="M351 668c0 -12 -9.66602 -23.3311 -28.999 -33.998c-16.667 -8.66699 -31.667 -13 -45 -13c-10.667 0 -25.334 2.33301 -44.001 7c-21.333 5.33301 -36.5 8.5 -45.5 9.5s-20.5 1.5 -34.5 1.5l1 -21c0 -47.333 -2.33301 -113.333 -7 -198
c-5.33301 -91.333 -8 -157 -8 -197v-131c-0.666992 -35.333 -1.66699 -66.333 -3 -93c0 -20 -1 -50 -3 -90c12 0 22.5 0.333008 31.5 1s23.833 4 44.5 10c18.667 4.66699 33.334 7 44.001 7c13.333 0 29 -4.83301 47 -14.5s27 -20.834 27 -33.501
c0 -4.66699 -1.66699 -9.33398 -5 -14.001c-27.333 -30 -94 -45 -200 -45c-37.333 0 -62 12 -74 36c-8 16 -12 45 -12 87c0 217.333 3.66699 409.333 11 576c2.66699 51.333 4.66699 84.333 6 99c5.33301 45.333 15 75 29 89s36.333 21 67 21c28.667 0 45 -0.666992 49 -2
c1.33301 -1.33301 4.33301 -3.66602 9 -6.99902c2.66699 -1.33301 10 -2.33301 22 -3c33.333 -1.33301 54 -3 62 -5c23.333 -4.66699 41.666 -14.334 54.999 -29.001c3.33301 -4 5 -8.66699 5 -14z" />
    <glyph glyph-name="bar" unicode="|" horiz-adv-x="262" 
d="M198 616c0 -49.333 -2.50195 -123.001 -7.50195 -221.001s-7.5 -171 -7.5 -219v-44c0 -54.667 -1 -99 -3 -133c0 -23.333 -0.333008 -46.666 -1 -69.999c-1.33301 -29.333 -6.66602 -51.333 -15.999 -66c-12.667 -20.667 -25.667 -31 -39 -31c-29.333 0 -44 38 -44 114
c0 213.333 3.66699 404.333 11 573c2.66699 56.667 5.33398 93 8.00098 109c7.33301 56 21.333 84 42 84c16.667 0 31 -10.667 43 -32c9.33301 -18 14 -39.333 14 -64z" />
    <glyph glyph-name="braceright" unicode="}" horiz-adv-x="420" 
d="M364 -57c0 -42 -3.99707 -71.002 -11.9971 -87.002c-12 -24 -36.667 -36 -74 -36c-106 0 -172.667 15 -200 45c-3.33301 4.66699 -5 9.33398 -5 14.001c0 12.667 9.33301 24 28 34c16.667 9.33301 32 14 46 14c10.667 0 25.834 -2.66699 45.501 -8s34 -8.33301 43 -9
s19.5 -1 31.5 -1l-3 90c-1.33301 26.667 -2.33301 58 -3 94c0.666992 46.667 0 116.667 -2 210l-10 215c-2 60 -2.66699 100.333 -2 121c-14 0 -25.5 -0.5 -34.5 -1.5s-24.167 -4.16699 -45.5 -9.5c-18.667 -4.66699 -33.334 -7 -44.001 -7
c-13.333 0 -28.333 4.33301 -45 13c-19.333 10.667 -29 22 -29 34c0 5.33301 1.66699 10 5 14c13.333 14.667 31.666 24.334 54.999 29.001c8 2 28.667 3.66699 62 5c5.33301 0 12.666 1 21.999 3c1.33301 2 4.16602 4 8.49902 6s20.833 3 49.5 3
c30.667 0 53.334 -7.33301 68.001 -22c17.333 -18 28.666 -80.333 33.999 -187c7.33301 -166.667 11 -358.667 11 -576z" />
    <glyph glyph-name="asciitilde" unicode="~" horiz-adv-x="595" 
d="M558 601c0 -34.667 -18.1699 -69.5039 -54.5029 -104.504s-71.833 -52.5 -106.5 -52.5c-51.333 0 -92.666 26.333 -123.999 79c-5.33301 12.667 -14 31.334 -26 56.001l-30 44c-2.66699 4.66699 -11.667 8.66699 -27 12c-12 2.66699 -22 4 -30 4
c-22 0 -33 -15.333 -33 -46c0 -20.667 4.66699 -35.5 14 -44.5s14 -17.5 14 -25.5c0 -10 -4.5 -20.167 -13.5 -30.5s-18.5 -15.5 -28.5 -15.5c-16 0 -31 11.667 -45 35s-21 53 -21 89c0 30.667 8.33301 57.667 25 81c18.667 26.667 42.334 40 71.001 40h17
c52 0 86 -6 102 -18c25.333 -19.333 42 -37.666 50 -54.999c4.66699 -15.333 13 -38 25 -68c6 -12.667 12.5 -24.834 19.5 -36.501s18.5 -17.5 34.5 -17.5c26.667 0 49.667 15.667 69 47c7.33301 10.667 11 27.334 11 50.001c0 4.66699 -2.33301 11.167 -7 19.5
s-7 14.833 -7 19.5c0 10.667 5.33301 20.334 16 29.001s21.334 13 32.001 13c7.33301 0 14.333 -4.33301 21 -13l14 -21c12 -17.333 18 -40.666 18 -69.999z" />
    <glyph glyph-name="exclamdown" unicode="&#xa1;" horiz-adv-x="249" 
d="M202 427c0 -16 -6 -30.667 -18 -44s-26 -20 -42 -20c-22 0 -39.333 8.33301 -52 25s-19 36.667 -19 60c0 18 5.83301 33.333 17.5 46s26.5 19 44.5 19c22 0 39 -8.5 51 -25.5s18 -37.167 18 -60.5zM184 227c0 -26 -1.66699 -59 -5 -99c-6 -57.333 -9 -90.333 -9 -99
l-6 -114c0 -18.667 -0.333008 -37.334 -1 -56.001c-2 -22 -8 -39 -18 -51c-14 -16.667 -29 -25 -45 -25c-33.333 0 -50 30 -50 90c0 50.667 4.33301 142.667 13 276c2.66699 40.667 5 67.334 7 80.001c6 36 16.667 58.333 32 67c4.66699 3.33301 10.667 5 18 5
c18.667 0 34 -7.5 46 -22.5s18 -32.167 18 -51.5z" />
    <glyph glyph-name="cent" unicode="&#xa2;" horiz-adv-x="560" 
d="M535 170c0 -11.333 -3.50293 -22.5 -10.5029 -33.5l-21.5 -32.5c-22.667 -34 -53 -61.667 -91 -83c-29.333 -16.667 -55.666 -26.667 -78.999 -30c-1.33301 -28.667 -6.33301 -51.334 -15 -68.001c-12 -24 -24.667 -36 -38 -36c-26.667 0 -40.667 37 -42 111
c-21.333 6.66699 -44.666 19.334 -69.999 38.001c-23.333 16.667 -46.333 42.667 -69 78c-37.333 56.667 -56 116.667 -56 180v3c0 90 32.667 164 98 222c13.333 12 27 20.667 41 26c16.667 6 40.667 9.33301 72 10c6.66699 77.333 21 116 43 116
c36.667 0 54.667 -41.333 54 -124c16.667 -4 35.834 -11 57.501 -21s34.167 -16 37.5 -18c11.333 -7.33301 21.333 -18 30 -32c6 -10.667 9 -20.667 9 -30c0 -14.667 -5.83301 -27 -17.5 -37s-25.167 -15 -40.5 -15c-12 0 -25.667 5.33301 -41 16l-38 28l-9 -199l-3 -114
c16.667 5.33301 41.667 25.333 75 60c29.333 30 55.333 45 78 45c14 0 25.667 -6.66699 35 -20c7.33301 -12 11 -25.333 11 -40zM248.997 446c-26 -11.333 -46.999 -34.333 -62.999 -69c-14 -30 -21 -61 -21 -93c0 -29.333 6 -58 18 -86c14 -31.333 32.667 -53 56 -65
c1.33301 82.667 4.66602 187 9.99902 313z" />
    <glyph glyph-name="sterling" unicode="&#xa3;" horiz-adv-x="559" 
d="M537 29c0 -16 -11.3301 -26.3311 -33.9971 -30.998c-14 -2.66699 -52 -4 -114 -4c-21.333 0 -53.333 0.333008 -96 1s-75 1 -97 1c-8.66699 0 -21.667 -2.16699 -39 -6.5s-30.333 -6.5 -39 -6.5c-20.667 0 -37.334 9.66699 -50.001 29c-12 17.333 -18 36.666 -18 57.999
c0 18 4.33301 40 13 66l22 64c8 25.333 23 62.666 45 111.999c-31.333 0 -56 6 -74 18l-16.5 10.5c-5.66699 3.66699 -8.5 8.5 -8.5 14.5c0 34 32 51 96 51c-7.33301 0 7.66699 -0.333008 45 -1c13.333 29.333 23.666 53.333 30.999 72c24.667 60.667 40.667 98 48 112
c24 44.667 50.333 73.667 79 87c16 7.33301 40.333 11 73 11c77.333 0 116 -24.333 116 -73c0 -12 -5.16699 -21.667 -15.5 -29s-21.5 -11 -33.5 -11c-6.66699 0 -16.334 0.833008 -29.001 2.5s-22.334 2.5 -29.001 2.5c-17.333 0 -30 -6.33301 -38 -19l-63 -108
c-8.66699 -15.333 -17.667 -33 -27 -53l93 -7c46.667 -2.66699 76.667 -5.66699 90 -9c41.333 -8.66699 62 -24.334 62 -47.001c0 -30 -24.667 -45 -74 -45c-25.333 0 -60.666 2.33301 -105.999 7c-49.333 5.33301 -84.333 8.33301 -105 9l-47 -121
c-5.33301 -16 -14.333 -40 -27 -72c55.333 -6.66699 149.333 -10 282 -10c18 0 33.667 -4.66699 47 -14c25.333 -19.333 38 -39.666 38 -60.999z" />
    <glyph glyph-name="yen" unicode="&#xa5;" horiz-adv-x="620" 
d="M624 660c0 -9.33301 -5.99902 -23.3291 -17.999 -41.9961c-9.33301 -12.667 -22.333 -32.334 -39 -59.001l-109 -191l-59 -99l-2 -20c65.333 -5.33301 100 -8.33301 104 -9c49.333 -8.66699 74 -25.334 74 -50.001c0 -29.333 -24.667 -44 -74 -44
c-30 0 -68.667 2.66699 -116 8c-0.666992 -8.66699 -1.33398 -20 -2.00098 -34c37.333 -2.66699 74.333 -5.66699 111 -9c54 -8.66699 81 -25.667 81 -51c0 -29.333 -24.667 -44 -74 -44c-27.333 0 -70 3.33301 -128 10c-10 -24 -32.667 -36 -68 -36
c-32.667 0 -51 14.667 -55 44l-74 3c-18 0 -31 0.666992 -39 2c-11.333 2.66699 -23 8 -35 16l-16.5 10c-5.66699 3.33301 -8.5 8.33301 -8.5 15c0 33.333 30 50 90 50c8.66699 0 37 -1 85 -3l2 37l-78 3c-18 0 -31 0.666992 -39 2c-11.333 2.66699 -23 8 -35 16l-16.5 10
c-5.66699 3.33301 -8.5 8.33301 -8.5 15c0 33.333 30 50 90 50c9.33301 0 41.333 -1 96 -3l3 31c-2.66699 6 -7 14.333 -13 25l-94 148l-54 86c-12 15.333 -28.667 39.666 -50 72.999l-16 22c-7.33301 10 -11 17.667 -11 23c0 11.333 6 20.666 18 27.999s24 11 36 11
c22 0 43.667 -6.66699 65 -20c10.667 -6.66699 19.334 -14.834 26.001 -24.501s13 -19.5 19 -29.5l44 -80l55 -89c20 -35.333 35 -67 45 -95h7l117 223c7.33301 14.667 19.333 36.334 36 65.001c4 8 8.16699 15.833 12.5 23.5s11.166 14.167 20.499 19.5
c17.333 9.33301 33 14 47 14c32 0 48 -17 48 -51z" />
    <glyph glyph-name="brokenbar" unicode="&#xa6;" horiz-adv-x="247" 
d="M203 629c0 -17.333 -1.66895 -40.001 -5.00195 -68.001c-4 -33.333 -6.33301 -56 -7 -68c-1.33301 -16.667 -3 -41.334 -5 -74.001c-0.666992 -13.333 -1 -26.333 -1 -39c-1.33301 -10 -6.66602 -22.333 -15.999 -37c-13.333 -21.333 -26.333 -32 -39 -32
c-7.33301 0 -15 3.66699 -23 11c-14 12.667 -21 32 -21 58c0 1.33301 1.33301 49 4 143c0 7.33301 0.666992 18.333 2 33c0 0.666992 0.333008 1.33398 1 2.00098h1c1.33301 0.666992 2.33301 11 3 31c1.33301 32 3 53 5 63c4.66699 22.667 14.334 40.667 29.001 54
c4 4 9.33301 6 16 6c16 0 30 -10.333 42 -31c9.33301 -17.333 14 -34.666 14 -51.999zM182.998 148.999c0 -17.333 -1.66895 -40.001 -5.00195 -68.001c-4 -33.333 -6.33301 -56 -7 -68c-1.33301 -16.667 -3 -41.334 -5 -74.001c-0.666992 -13.333 -1 -26.333 -1 -39
c-1.33301 -10 -6.66602 -22.333 -15.999 -37c-13.333 -21.333 -26.333 -32 -39 -32c-7.33301 0 -15 3.66699 -23 11c-14 12.667 -21 32 -21 58c0 1.33301 1.33301 49 4 143c0 7.33301 0.666992 18.333 2 33c0 0.666992 0.333008 1.33398 1 2.00098h1
c1.33301 0.666992 2.33301 11 3 31c1.33301 32 3 53 5 63c4.66699 22.667 14.334 40.667 29.001 54c4 4 9.33301 6 16 6c16 0 30 -10.333 42 -31c9.33301 -17.333 14 -34.666 14 -51.999z" />
    <glyph glyph-name="section" unicode="&#xa7;" horiz-adv-x="510" 
d="M468 302c0 -56 -27.333 -106.999 -82 -152.999c26 -28 39 -62.667 39 -104c0 -38 -17.667 -68.333 -53 -91c-30.667 -19.333 -66 -29 -106 -29c-56.667 0 -101 13 -133 39c-16.667 14 -25 26.667 -25 38c0 10 6.16699 20.167 18.5 30.5s23.833 15.5 34.5 15.5
c9.33301 0 17.333 -3.66699 24 -11c8.66699 -10 15 -15.667 19 -17c12 -6 32.667 -9 62 -9c15.333 0 28.666 5.33301 39.999 16s17 23.667 17 39c0 16 -11.667 28 -35 36c-18.667 5.33301 -37 11.166 -55 17.499s-44 17.833 -78 34.5c-68.667 41.333 -103 93 -103 155
c0 56 27.333 106.667 82 152c-26 28.667 -39 63.667 -39 105c0 38 17.667 68.333 53 91c30.667 19.333 66 29 106 29c56.667 0 101 -13.333 133 -40c16.667 -14 25 -26.333 25 -37c0 -10 -6.16699 -20.333 -18.5 -31s-23.833 -16 -34.5 -16c-9.33301 0 -17.333 4 -24 12
c-8.66699 9.33301 -15 15 -19 17c-12 6 -32.667 9 -62 9c-15.333 0 -28.666 -5.5 -39.999 -16.5s-17 -23.833 -17 -38.5c0 -16.667 11.667 -29 35 -37c18.667 -5.33301 37 -11 55 -17s44 -17.333 78 -34c68.667 -41.333 103 -93 103 -155zM377 306.001
c0 15.333 -3 28.334 -9 39.001s-17 19.667 -33 27l-39 18c-18 6 -45.333 15.667 -82 29c-18 -13.333 -34 -30.333 -48 -51c-15.333 -22.667 -23 -43.667 -23 -63c0 -15.333 3 -28.333 9 -39s17 -19.667 33 -27l39 -18c18 -6 45.333 -15.667 82 -29c18 13.333 34 30 48 50
c15.333 23.333 23 44.666 23 63.999z" />
    <glyph glyph-name="dieresis" unicode="&#xa8;" horiz-adv-x="413" 
d="M442 832c0 -21.333 -8.00098 -38.334 -24.001 -51.001s-34.667 -19 -56 -19c-20.667 0 -37.667 5.66699 -51 17s-20 27 -20 47c0 8.66699 3.33301 18.334 10 29.001c14.667 24.667 40.334 37 77.001 37c16 0 30.667 -6 44 -18s20 -26 20 -42zM151.999 831.999
c0 -21.333 -8.00098 -38.334 -24.001 -51.001s-34.667 -19 -56 -19c-20.667 0 -37.667 5.66699 -51 17s-20 27 -20 47c0 8.66699 3.33301 18.334 10 29.001c14.667 24.667 40.334 37 77.001 37c16 0 30.667 -6 44 -18s20 -26 20 -42z" />
    <glyph glyph-name="copyright" unicode="&#xa9;" horiz-adv-x="726" 
d="M679 304c0 -117.333 -51.665 -207 -154.998 -269c-52.667 -32 -109 -48 -169 -48c-78.667 0 -146.667 28.333 -204 85c-30.667 31.333 -56.667 74 -78 128c-18.667 49.333 -28 95.333 -28 138c0 42 8.66699 86.333 26 133c14 39.333 30 70 48 92
c59.333 72.667 138.666 109 237.999 109c77.333 0 144.333 -22 201 -66c35.333 -27.333 62.666 -59.333 81.999 -96c26 -47.333 39 -116 39 -206zM640.002 294c0 56 -11.335 112.332 -34.002 168.999c-14 36 -29 63.667 -45 83c-17.333 22 -41.666 42 -72.999 60
c-45.333 26.667 -85.666 40 -120.999 40c-28.667 0 -62 -8 -100 -24c-66 -27.333 -113.333 -71.333 -142 -132c-15.333 -33.333 -23 -72.666 -23 -117.999c0 -54 3.5 -93 10.5 -117s20.167 -50.667 39.5 -80c31.333 -49.333 63.333 -85 96 -107
c38 -25.333 83.667 -38 137 -38c66 0 122.667 23.667 170 71c56.667 56.667 85 121 85 193zM580 238.999c0 -9.33301 -9.33105 -27.6641 -27.998 -54.9971c-19.333 -29.333 -44.833 -53 -76.5 -71s-64.834 -27 -99.501 -27c-36.667 0 -73.334 13.333 -110.001 40
c-19.333 14 -39.333 36.333 -60 67c-18 27.333 -30.667 53.5 -38 78.5s-11 50.833 -11 77.5c0 74.667 25 135.334 75 182.001c16 16 30.667 26.333 44 31c16 6 39.667 9 71 9c46.667 0 88 -8 124 -24c18.667 -8.66699 28 -13.334 28 -14.001c10 -5.33301 18 -12.333 24 -21
c8.66699 -11.333 13 -21.333 13 -30c0 -10.667 -4.5 -19.834 -13.5 -27.501s-18.833 -11.5 -29.5 -11.5c-4.66699 0 -9.66699 0.666992 -15 2s-11.333 4.66602 -18 9.99902c-9.33301 8 -14.333 12.333 -15 13c-28.667 18.667 -54.334 28 -77.001 28
c-36 0 -65.333 -18.333 -88 -55c-18.667 -32 -28 -67.333 -28 -106s10.667 -72.334 32 -101.001c24 -31.333 54.333 -47 91 -47c28.667 0 57.334 12.333 86.001 37c8.66699 11.333 23.667 26 45 44c18.667 11.333 31.667 17 39 17c10.667 0 19.167 -4.83301 25.5 -14.5
s9.5 -20.167 9.5 -31.5z" />
    <glyph glyph-name="ordfeminine" unicode="&#xaa;" horiz-adv-x="500" 
d="M445 683c0 -3.33301 -3.66406 -60.332 -10.9971 -170.999c-0.666992 -18.667 -2 -47 -4 -85c-0.666992 -14 -1 -28 -1 -42c-1.33301 -16.667 -6 -29.334 -14 -38.001c-10.667 -12.667 -22.334 -19 -35.001 -19c-17.333 0 -28.333 11 -33 33
c-37.333 -25.333 -76 -38 -116 -38c-46 0 -86.333 17 -121 51c-18.667 18.667 -34 44 -46 76c-11.333 29.333 -17 56.333 -17 81s5.33301 51 16 79c29.333 80 86.666 120 171.999 120c45.333 0 86.666 -15.667 123.999 -47c6 36.667 18.333 55 37 55
c14 0 25.667 -5.66699 35 -17s14 -24 14 -38zM345.003 510.001c0 60.667 -20.335 103.333 -61.002 128c-18 10.667 -34.333 16 -49 16c-11.333 0 -24.666 -3.33301 -39.999 -10c-44.667 -18 -66.667 -51.667 -66 -101v-10c0.666992 -26 7.33398 -49.333 20.001 -70
c25.333 -39.333 56.333 -59 93 -59c28 0 52.167 10.667 72.5 32s30.5 46 30.5 74z" />
    <glyph glyph-name="guillemotleft" unicode="&#xab;" horiz-adv-x="556" 
d="M508 131c0 -32 -9.99902 -47.999 -29.999 -47.999c-4.66699 0 -11.667 3.33301 -21 10c-16 14 -40.333 33.667 -73 59c-22.667 14 -54.667 37 -96 69c-16 14.667 -24 30.334 -24 47.001c0 13.333 5 29.333 15 48c6 12 16 26 30 42l36 38l108 133l12.5 16.5
c4.33301 5.66699 8.5 8.5 12.5 8.5c14.667 0 22 -15.667 22 -47s-7.33301 -57.333 -22 -78c-0.666992 -0.666992 -19 -20.667 -55 -60c-16 -20.667 -42.333 -49.334 -79 -86.001c13.333 -9.33301 46.666 -31 99.999 -65l31 -19c12 -8.66699 20 -17.334 24 -26.001
c6 -14 9 -28 9 -42zM288.001 131.001c0 -32 -9.99902 -47.999 -29.999 -47.999c-4.66699 0 -11.667 3.33301 -21 10c-16 14 -40.333 33.667 -73 59c-22.667 14 -54.667 37 -96 69c-16 14.667 -24 30.334 -24 47.001c0 13.333 5 29.333 15 48c6 12 16 26 30 42l36 38l108 133
l12.5 16.5c4.33301 5.66699 8.5 8.5 12.5 8.5c14.667 0 22 -15.667 22 -47s-7.33301 -57.333 -22 -78c-0.666992 -0.666992 -19 -20.667 -55 -60c-16 -20.667 -42.333 -49.334 -79 -86.001c13.333 -9.33301 46.666 -31 99.999 -65l31 -19c12 -8.66699 20 -17.334 24 -26.001
c6 -14 9 -28 9 -42z" />
    <glyph glyph-name="logicalnot" unicode="&#xac;" horiz-adv-x="531" 
d="M468 6h-66v138h-343v58h409v-196z" />
    <glyph glyph-name="registered" unicode="&#xae;" horiz-adv-x="726" 
d="M680 315c0 -77.333 -19.668 -142 -59.001 -194v-5c0 -22.667 -7.66699 -40 -23 -52c-8 -6.66699 -15.333 -10 -22 -10c-4.66699 0 -9.66699 1.33301 -15 4c-63.333 -47.333 -131.666 -71 -204.999 -71c-78.667 0 -146.667 28.333 -204 85
c-31.333 31.333 -57.333 74 -78 128c-19.333 50.667 -29 97 -29 139c0 40 8.66699 84 26 132c14.667 39.333 30.667 70 48 92c60 72.667 139.667 109 239 109c76.667 0 143.667 -22 201 -66c34.667 -27.333 62 -59.333 82 -96c26 -46.667 39 -111.667 39 -195zM422.999 460
c0 39.333 -28 58.999 -84 58.999c-32.667 0 -60 -11 -82 -33l13 -123c10.667 -1.33301 20.334 -2 29.001 -2c10 0 22 1.33301 36 4c19.333 3.33301 30.333 5.33301 33 6c11.333 2.66699 20.666 7.66699 27.999 15c18 16.667 27 41.334 27 74.001zM640.999 293.999
c0 56 -11.332 112.334 -33.999 169.001c-14.667 36 -29.667 63.667 -45 83c-17.333 22 -42 42 -74 60c-45.333 26.667 -85.666 40 -120.999 40c-28 0 -61.333 -8 -100 -24c-66 -27.333 -113 -71.333 -141 -132c-15.333 -33.333 -23 -72.666 -23 -117.999
c0 -54 3.5 -93 10.5 -117s19.833 -50.667 38.5 -80c32 -49.333 64 -85 96 -107c38 -25.333 83.667 -38 137 -38c61.333 0 112.666 18.333 153.999 55c-10 14 -18.167 28 -24.5 42l-28.5 61c-26 44.667 -53 76.667 -81 96c-31.333 21.333 -71.333 32 -120 32h-5v-10
c0 -30 1 -54.333 3 -73c4.66699 -36 7 -55.333 7 -58c0 -31.333 -12 -47 -36 -47c-22.667 0 -38.334 9 -47.001 27s-16.334 70 -23.001 156c-6 73.333 -8.66699 128.666 -8 165.999v14c56 62 107.333 93 154 93c78.667 0 130.667 -28.667 156 -86c6 -14 9 -25 9 -33
c0 -26 -2.16699 -45 -6.5 -57s-15.166 -27 -32.499 -45c-6 -6.66699 -14.333 -12 -25 -16c33.333 -24 56 -41.333 68 -52c24.667 -20 44.667 -40 60 -60c9.33301 -16 24.333 -39.667 45 -71c24.667 45.333 37 88.666 37 129.999z" />
    <glyph glyph-name="macron" unicode="&#xaf;" horiz-adv-x="267" 
d="M286 826l-1 4c0 -20 -10.667 -30 -32 -30h-216c-22 0 -33 10 -33 30c0 22.667 11.333 34 34 34h214c22 0 33 -11.333 33 -34l1 5v-9z" />
    <glyph glyph-name="macron" unicode="&#x2c9;" horiz-adv-x="267" 
d="M286 826l-1 4c0 -20 -10.667 -30 -32 -30h-216c-22 0 -33 10 -33 30c0 22.667 11.333 34 34 34h214c22 0 33 -11.333 33 -34l1 5v-9z" />
    <glyph glyph-name="degree" unicode="&#xb0;" horiz-adv-x="345" 
d="M301 591c0 -34 -11.999 -63.167 -35.999 -87.5s-53 -36.5 -87 -36.5c-36 0 -65.333 13.667 -88 41s-34 59.333 -34 96c0 36 11.833 66.333 35.5 91s53.167 37 88.5 37c47.333 0 82.666 -21.333 105.999 -64c10 -18 15 -43.667 15 -77zM229.001 593
c0 16 -4.33203 30.666 -12.999 43.999c-9.33301 16 -21.666 24 -36.999 24c-32.667 0 -49 -19.333 -49 -58c0 -15.333 5.16699 -29.666 15.5 -42.999s23.166 -20 38.499 -20c13.333 0 24.166 5.5 32.499 16.5s12.5 23.167 12.5 36.5z" />
    <glyph glyph-name="plusminus" unicode="&#xb1;" horiz-adv-x="574" 
d="M558 448c0 -28.667 -15.335 -49.334 -46.002 -62.001c-8 -2.66699 -52 -4 -132 -4h-20v-41v-40c0 -78 -16.667 -117 -50 -117c-28.667 0 -49 15.333 -61 46c-3.33301 8 -5 52.333 -5 133v19c-56.667 -1.33301 -87.667 -2 -93 -2s-13.333 -0.333008 -24 -1
s-18.667 -1 -24 -1c-21.333 0 -38 4.66699 -50 14c-19.333 14 -29 29.667 -29 47c0 6.66699 1.66699 13.334 5 20.001c6.66699 13.333 22 22 46 26c5.33301 1.33301 24.333 3.16602 57 5.49902s70 3.83301 112 4.5c-1.33301 74 -2 106 -2 96
c0 5.33301 -0.333008 13.333 -1 24s-1 19 -1 25c0 20.667 4.66699 37.334 14 50.001c14 18.667 29.667 28 47 28c6.66699 0 13.667 -1.66699 21 -5c12.667 -6 21.334 -21 26.001 -45c0.666992 -6 2.33398 -24.667 5.00098 -56c2 -34 3.33301 -72.333 4 -115l84 1
c78 0 117 -16.667 117 -50zM538.998 36c0 -30 -24.667 -45 -74 -45c-23.333 0 -53 2 -89 6c-50 5.33301 -79.667 8.33301 -89 9c-44 2.66699 -93 4.66699 -147 6c-18 0.666992 -30.667 1.66699 -38 3c-11.333 2 -23.333 7 -36 15l-16.5 10.5
c-5.66699 3.66699 -8.5 8.5 -8.5 14.5c0 34 30 51 90 51c39.333 0 124.666 -4.66699 255.999 -14c40.667 -2.66699 67.334 -5 80.001 -7c36.667 -6 59 -16.333 67 -31c3.33301 -5.33301 5 -11.333 5 -18z" />
    <glyph glyph-name="twosuperior" unicode="&#xb2;" horiz-adv-x="374" 
d="M335 450c0 -14.667 -12.334 -24.0029 -37.001 -28.0029c-6.66699 -0.666992 -24.667 -1 -54 -1c-12 0 -29.833 0.333008 -53.5 1s-41.5 1 -53.5 1c-5.33301 0 -13 -1.16699 -23 -3.5s-17.667 -3.5 -23 -3.5c-17.333 0 -26 10 -26 30s14.333 45.667 43 77l68 65
c26 24.667 48.667 51.334 68 80.001c8 11.333 12 20.333 12 27c0 2.66699 -0.666992 5.33398 -2 8.00098c-16.667 32 -41 48 -73 48c-20 0 -40 -7.16699 -60 -21.5s-34 -21.5 -42 -21.5c-8.66699 0 -16.667 3 -24 9s-11 13.333 -11 22c0 6.66699 3.33301 14.667 10 24
c11.333 15.333 34 27.666 68 36.999c28 8 54 12 78 12c16.667 0 30.334 -2 41.001 -6c20 -7.33301 38.833 -22.166 56.5 -44.499s26.5 -43.5 26.5 -63.5c0 -29.333 -22 -66.666 -66 -111.999l-98 -97c28 -3.33301 62 -5 102 -5c34.667 0 55 -2.66699 61 -8
c8 -8 12 -16.667 12 -26z" />
    <glyph glyph-name="threesuperior" unicode="&#xb3;" horiz-adv-x="355" 
d="M297 713c0 -26.667 -10.668 -50.334 -32.001 -71.001c-5.33301 -5.33301 -16.333 -10.666 -33 -15.999c-12 -4 -24 -7.66699 -36 -11c18.667 -4.66699 41.334 -13.334 68.001 -26.001c21.333 -21.333 32 -45 32 -71c0 -22 -7.66699 -42.333 -23 -61s-34 -31 -56 -37
c-10 -2.66699 -24.667 -4 -44 -4c-24 0 -48.333 3 -73 9c-34.667 8 -52 20 -52 36c0 15.333 11.667 23 35 23c7.33301 0 19 -3.66699 35 -11s30 -11 42 -11c17.333 0 32 5.83301 44 17.5s18 26.5 18 44.5c0 19.333 -15.667 35.333 -47 48c-38 16 -59.5 27.333 -64.5 34
s-7.5 10.667 -7.5 12c0 10 4.66699 17.667 14 23c19.333 10 33 14.667 41 14c25.333 9.33301 39.333 15 42 17c15.333 8.66699 23 20.334 23 35.001c0 17.333 -6 32 -18 44s-27 18 -45 18c-12 0 -26 -3.66699 -42 -11s-27.333 -11 -34 -11c-24 0 -36 7.33301 -36 22
c0 16 17.333 28.333 52 37c24.667 5.33301 49 8 73 8c19.333 0 34.333 -1.33301 45 -4c22 -6 40.667 -18.167 56 -36.5s23 -38.5 23 -60.5z" />
    <glyph glyph-name="acute" unicode="&#xb4;" horiz-adv-x="215" 
d="M230 933c0 -8.66699 -2.00098 -16.667 -6.00098 -24c-2 -4 -48.667 -35.333 -140 -94l-59 -40c-9.33301 -6 -18.333 -12.333 -27 -19c-10.667 -6.66699 -20.667 -10 -30 -10c-13.333 0 -25.666 4 -36.999 12c-13.333 9.33301 -20 20.333 -20 33c0 12 14.333 29 43 51
c38 28.667 89.667 63.667 155 105c36.667 23.333 62.667 35 78 35c28.667 0 43 -16.333 43 -49z" />
    <glyph glyph-name="mu" unicode="&#xb5;" horiz-adv-x="588" 
d="M530 406c0 -66.667 -1.6709 -146.667 -5.00391 -240c-2 -21.333 -4.66699 -53.333 -8 -96c-2 -24 -4.33301 -41.333 -7 -52c-6.66699 -22 -17.667 -33.667 -33 -35c-5.33301 -0.666992 -11 -1 -17 -1c-18.667 0 -32 4.66699 -40 14l-21 35
c-10.667 -12.667 -27.334 -23.334 -50.001 -32.001c-20 -7.33301 -39.333 -11 -58 -11c-46.667 0 -86.334 11.333 -119.001 34c-2 -26 -4.66699 -65.333 -8 -118c-2 -24 -4.66699 -41.333 -8 -52c-6 -22 -16.667 -33.667 -32 -35h-13c-44.667 0 -67 21 -67 63l11 176
c0.666992 3.33301 1.33398 25.333 2.00098 66c0.666992 12 2 32.667 4 62c1.33301 26.667 2 47.334 2 62.001c0 24 2.33301 67.333 7 130c4.66699 70.667 9.33398 109.667 14.001 117c12.667 22.667 30.334 34 53.001 34c28.667 0 43 -21.667 43 -65
c0 -6.66699 -0.5 -16.167 -1.5 -28.5s-1.5 -21.5 -1.5 -27.5c0 -26 -0.333008 -44 -1 -54c-2 -26 -3 -36.333 -3 -31c0 -5.33301 0.666992 -13.166 2 -23.499s2 -17.5 2 -21.5v-18c-0.666992 -8.66699 -1 -14.334 -1 -17.001c0 -14 3.66699 -31.667 11 -53
c11.333 -34.667 29.333 -60.667 54 -78c20 -14 35.667 -21 47 -21c15.333 0 31.333 4.33301 48 13c14.667 7.33301 29.834 21.833 45.501 43.5s24.5 40.5 26.5 56.5c0.666992 1.33301 1.33398 23.333 2.00098 66c0.666992 24.667 3.33398 63.667 8.00098 117
c6 64 11 99.667 15 107c14 22 29.333 33 46 33c34 0 51 -39.667 51 -119z" />
    <glyph glyph-name="mu" unicode="&#x3bc;" horiz-adv-x="588" 
d="M530 406c0 -66.667 -1.6709 -146.667 -5.00391 -240c-2 -21.333 -4.66699 -53.333 -8 -96c-2 -24 -4.33301 -41.333 -7 -52c-6.66699 -22 -17.667 -33.667 -33 -35c-5.33301 -0.666992 -11 -1 -17 -1c-18.667 0 -32 4.66699 -40 14l-21 35
c-10.667 -12.667 -27.334 -23.334 -50.001 -32.001c-20 -7.33301 -39.333 -11 -58 -11c-46.667 0 -86.334 11.333 -119.001 34c-2 -26 -4.66699 -65.333 -8 -118c-2 -24 -4.66699 -41.333 -8 -52c-6 -22 -16.667 -33.667 -32 -35h-13c-44.667 0 -67 21 -67 63l11 176
c0.666992 3.33301 1.33398 25.333 2.00098 66c0.666992 12 2 32.667 4 62c1.33301 26.667 2 47.334 2 62.001c0 24 2.33301 67.333 7 130c4.66699 70.667 9.33398 109.667 14.001 117c12.667 22.667 30.334 34 53.001 34c28.667 0 43 -21.667 43 -65
c0 -6.66699 -0.5 -16.167 -1.5 -28.5s-1.5 -21.5 -1.5 -27.5c0 -26 -0.333008 -44 -1 -54c-2 -26 -3 -36.333 -3 -31c0 -5.33301 0.666992 -13.166 2 -23.499s2 -17.5 2 -21.5v-18c-0.666992 -8.66699 -1 -14.334 -1 -17.001c0 -14 3.66699 -31.667 11 -53
c11.333 -34.667 29.333 -60.667 54 -78c20 -14 35.667 -21 47 -21c15.333 0 31.333 4.33301 48 13c14.667 7.33301 29.834 21.833 45.501 43.5s24.5 40.5 26.5 56.5c0.666992 1.33301 1.33398 23.333 2.00098 66c0.666992 24.667 3.33398 63.667 8.00098 117
c6 64 11 99.667 15 107c14 22 29.333 33 46 33c34 0 51 -39.667 51 -119z" />
    <glyph glyph-name="paragraph" unicode="&#xb6;" horiz-adv-x="770" 
d="M710 73c0 -28.667 -3.66602 -48.6719 -10.999 -60.0049c-8.66699 -14 -26.667 -25 -54 -33c-22.667 14.667 -35 35 -37 61c-2.66699 39.333 -4 87 -4 143c0 29.333 3 167.666 9 414.999c-31.333 4.66699 -57.333 7.33398 -78 8.00098l-1 -9
c0 -12.667 0.333008 -29.667 1 -51c1.33301 -24.667 2 -41.667 2 -51c0 -6 -0.333008 -36.333 -1 -91c0 -21.333 -0.666992 -56.666 -2 -105.999c-1.33301 -44.667 -2 -79.667 -2 -105c0 -12 1 -30.167 3 -54.5s3 -42.5 3 -54.5c0 -28.667 -3.66699 -49 -11 -61
c-8.66699 -14.667 -26.667 -25.667 -54 -33c-4.66699 2.66699 -9.66699 6.33398 -15 11.001c-13.333 10.667 -20.666 27.334 -21.999 50.001c-2 27.333 -3 109.333 -3 246c-38.667 -6.66699 -74.334 -10 -107.001 -10c-123.333 0 -208 48.333 -254 145
c-15.333 31.333 -23 59.333 -23 84s8 52 24 82c24 44 49.667 71 77 81c32.667 11.333 106 17 220 17c40 0 73.333 -2.33301 100 -7c16 -2.66699 24.667 -4 26 -4c4.66699 0 12 0.333008 22 1h22c73.333 0 122.666 -7 147.999 -21c13.333 -8 20 -25 20 -51
c0 -3.33301 -0.333008 -8.33301 -1 -15v-15c0 -11.333 0.333008 -28.166 1 -50.499s1 -39.166 1 -50.499c0 -34 -0.833008 -84.5 -2.5 -151.5s-2.5 -117.167 -2.5 -150.5c0 -12.667 1 -31 3 -55s3 -42 3 -54zM441.001 608.995c-48 7.33301 -91.333 11 -130 11
c-104 0 -156 -33.333 -156 -100c0 -38.667 13 -70.667 39 -96s58 -38 96 -38c56 0 105.667 7.66699 149 23z" />
    <glyph glyph-name="middot" unicode="&#xb7;" horiz-adv-x="274" 
d="M205 280c0 -16 -6.00098 -30.667 -18.001 -44s-26 -20 -42 -20c-22 0 -39.167 8.33301 -51.5 25s-18.5 36.667 -18.5 60c0 18 5.66699 33.333 17 46s26 19 44 19c22.667 0 40.334 -9 53.001 -27c10.667 -16 16 -35.667 16 -59z" />
    <glyph glyph-name="middot" unicode="&#x2219;" horiz-adv-x="274" 
d="M205 280c0 -16 -6.00098 -30.667 -18.001 -44s-26 -20 -42 -20c-22 0 -39.167 8.33301 -51.5 25s-18.5 36.667 -18.5 60c0 18 5.66699 33.333 17 46s26 19 44 19c22.667 0 40.334 -9 53.001 -27c10.667 -16 16 -35.667 16 -59z" />
    <glyph glyph-name="cedilla" unicode="&#xb8;" horiz-adv-x="134" 
d="M144 -126c0 -26.667 -14.999 -46.668 -44.999 -60.001c-22.667 -10 -49.334 -15 -80.001 -15c-7.33301 0 -14.333 0.333008 -21 1v45c12 -4 24 -6 36 -6s23.667 2.33301 35 7c14 6.66699 21 15.334 21 26.001c0 22.667 -28 33.667 -84 33v95h48v-55
c20.667 -2.66699 40 -10 58 -22c21.333 -14 32 -30.333 32 -49z" />
    <glyph glyph-name="onesuperior" unicode="&#xb9;" horiz-adv-x="303" 
d="M249 758c0 -4 -3.00195 -58.333 -9.00195 -163c-0.666992 -18 -2 -45 -4 -81v-39c-1.33301 -16 -5.33301 -28.333 -12 -37c-9.33301 -11.333 -19 -17 -29 -17c-20.667 0 -31 21 -31 63c0 78.667 3.33301 163.334 10 254.001l-68 -62
c-17.333 -15.333 -28.666 -23 -33.999 -23c-17.333 0 -26 6.66699 -26 20c0 7.33301 7.33301 18.333 22 33c20 20 47 45.333 81 76c21.333 19.333 36.333 28.666 45 27.999h3c2.66699 2 6.33398 3 11.001 3c13.333 0 23.5 -5.83301 30.5 -17.5s10.5 -24.167 10.5 -37.5z" />
    <glyph glyph-name="ordmasculine" unicode="&#xba;" horiz-adv-x="471" 
d="M427 504c0 -52 -18.8311 -96.499 -56.498 -133.499s-82.834 -55.5 -135.501 -55.5c-46.667 0 -87 17.333 -121 52c-18.667 18 -34.334 43 -47.001 75c-11.333 29.333 -17 57.666 -17 84.999c0 22.667 5.33301 47.667 16 75c8.66699 23.333 18 41.333 28 54
c36 44 83.333 66 142 66c34.667 0 67.167 -8.5 97.5 -25.5s53.5 -40.167 69.5 -69.5s24 -70.333 24 -123zM349.002 503.001c0 60.667 -20.6689 103.001 -62.002 127.001c-18 10.667 -34 16 -48 16c-11.333 0 -24.666 -3 -39.999 -9
c-44.667 -18.667 -67 -52.334 -67 -101.001l1 -11c0 -25.333 6.66699 -48.333 20 -69c24.667 -39.333 55.334 -59 92.001 -59c28 0 52.333 10.667 73 32s31 46 31 74z" />
    <glyph glyph-name="guillemotright" unicode="&#xbb;" horiz-adv-x="557" 
d="M510 268c0 -16.667 -7.99707 -32.332 -23.9971 -46.999c-2.66699 -2.66699 -34.334 -25.667 -95.001 -69c-5.33301 -3.33301 -30 -23 -74 -59c-8.66699 -6.66699 -15.334 -10 -20.001 -10c-14.667 0 -24.334 9.66699 -29.001 29c-0.666992 4.66699 -1 11 -1 19
c0 14 2.66699 28 8 42c4 9.33301 22.667 24.333 56 45l99 65c-12 10 -25.667 24 -41 42c-24 28 -36.333 42.667 -37 44c-36.667 39.333 -55 59.333 -55 60c-14.667 20.667 -22 46.667 -22 78s7 47 21 47c4 0 8.33301 -2.83301 13 -8.5s8.66699 -11.167 12 -16.5l108 -133
c17.333 -16.667 39.333 -43.334 66 -80.001c10 -18.667 15 -34.667 15 -48zM290.003 268.002c0 -16.667 -7.99707 -32.332 -23.9971 -46.999c-2.66699 -2.66699 -34.334 -25.667 -95.001 -69c-5.33301 -3.33301 -30 -23 -74 -59c-8.66699 -6.66699 -15.334 -10 -20.001 -10
c-14.667 0 -24.334 9.66699 -29.001 29c-0.666992 4.66699 -1 11 -1 19c0 14 2.66699 28 8 42c4 9.33301 22.667 24.333 56 45l99 65c-12 10 -25.667 24 -41 42c-24 28 -36.333 42.667 -37 44c-36.667 39.333 -55 59.333 -55 60c-14.667 20.667 -22 46.667 -22 78
s7 47 21 47c4 0 8.33301 -2.83301 13 -8.5s8.66699 -11.167 12 -16.5l108 -133c17.333 -16.667 39.333 -43.334 66 -80.001c10 -18.667 15 -34.667 15 -48z" />
    <glyph glyph-name="onequarter" unicode="&#xbc;" horiz-adv-x="699" 
d="M660 134c0 -11.333 -4.66797 -18.668 -14.001 -22.001c-4 -1.33301 -13.333 -2 -28 -2c0 -16 -0.333008 -32 -1 -48c-1.33301 -21.333 -4.66602 -36 -9.99902 -44c-8 -11.333 -16.333 -17 -25 -17c-14.667 0 -23.667 15.333 -27 46v62c-11.333 0 -30.333 0.333008 -57 1
h-58c-4 0 -10.167 -0.5 -18.5 -1.5s-14.833 -1.5 -19.5 -1.5c-22.667 0 -34 7.66699 -34 23c0 16.667 28.667 57.667 86 123c24 26.667 58.333 68.667 103 126c3.33301 4.66699 10 8.66699 20 12c4.66699 8.66699 10.667 13 18 13c6 0 12.667 -3.33301 20 -10
s10.666 -13 9.99902 -19c2.66699 -6 4 -19.667 4 -41c0 -4.66699 -3 -59.667 -9 -165c-3.33301 0.666992 1.33398 1 14.001 1c7.33301 0 13.5 -4.16699 18.5 -12.5s7.5 -16.166 7.5 -23.499zM561.999 286.998l-54.999 -58c-25.333 -28 -40.333 -47.667 -45 -59
c4 -0.666992 8.33301 -1 13 -1c-2.66699 0 24.666 0.333008 81.999 1c1.33301 26 3 65 5 117zM581 687.998c0 -5.33301 -1.16797 -12.332 -3.50098 -20.999s-18.166 -38 -47.499 -88l-164 -268l-89 -155l-42 -73c-17.333 -28.667 -35.333 -50 -54 -64
c-26 -18.667 -45.667 -28 -59 -28c-6 0 -9 2.66699 -9 8c0 18 54.333 120 163 306c102 175.333 167.667 283.666 197 324.999c38.667 54 68.667 81 90 81c12 0 18 -7.66699 18 -23zM247.999 647.999c0 -4 -3.00098 -58.333 -9.00098 -163c-0.666992 -18 -2 -45 -4 -81
c0 -12.667 -0.333008 -25.667 -1 -39c-0.666992 -16 -4.33398 -28.333 -11.001 -37c-9.33301 -11.333 -19 -17 -29 -17c-20.667 0 -31 21 -31 63c0 78.667 3.33301 163.334 10 254.001l-68 -62c-17.333 -15.333 -28.666 -23 -33.999 -23c-17.333 0 -26 6.66699 -26 20
c0 7.33301 7.33301 18.333 22 33c20 20 46.667 45.333 80 76c22 19.333 37.333 28.666 46 27.999h3c2.66699 2 6.33398 3 11.001 3c12.667 0 22.667 -5.83301 30 -17.5s11 -24.167 11 -37.5z" />
    <glyph glyph-name="onehalf" unicode="&#xbd;" horiz-adv-x="721" 
d="M685 27c0 -14.667 -12 -23.667 -36 -27c-6.66699 -1.33301 -24.667 -2 -54 -2c-12 0 -29.833 0.333008 -53.5 1s-41.5 1 -53.5 1c-5.33301 -0 -13 -1.16699 -23 -3.5s-17.667 -3.5 -23 -3.5c-18 0 -27 10 -27 30s14.667 45.667 44 77l67 65
c26.667 24.667 49.667 51.334 69 80.001c8 11.333 12 20.333 12 27c0 3.33301 -0.666992 6 -2 8c-16.667 32 -41.334 48 -74.001 48c-20 0 -40 -7.16699 -60 -21.5s-34 -21.5 -42 -21.5s-15.667 3.16699 -23 9.5s-11 13.5 -11 21.5c0 6.66699 3.33301 14.667 10 24
c10.667 15.333 33 27.666 67 36.999c28.667 8.66699 54.667 13 78 13c16.667 0 30.334 -2.33301 41.001 -7c20 -7.33301 38.833 -22 56.5 -44s26.5 -43.333 26.5 -64c0 -28.667 -22 -66 -66 -112l-98 -96c28.667 -4 62.667 -6 102 -6c35.333 0 56 -2.66699 62 -8
c7.33301 -8 11 -16.667 11 -26zM569 688c0 -5.33301 -1.16699 -12.499 -3.5 -21.499s-20.833 -42.833 -55.5 -101.5l-156 -254l-89 -155l-42 -73c-16.667 -28.667 -34.667 -50 -54 -64c-26 -18.667 -45.667 -28 -59 -28c-6 0 -9 2.66699 -9 8c0 18 54.333 120 163 306
c102 175.333 168 283.666 198 324.999c38 54 67.667 81 89 81c12 0 18 -7.66699 18 -23zM236 648.001c0 -4 -3.00195 -58.333 -9.00195 -163c-0.666992 -18 -2 -45 -4 -81v-39c-1.33301 -16 -5.33301 -28.333 -12 -37c-9.33301 -11.333 -19 -17 -29 -17
c-20.667 0 -31 21 -31 63c0 78.667 3.33301 163.334 10 254.001l-68 -62c-17.333 -15.333 -28.666 -23 -33.999 -23c-17.333 0 -26 6.66699 -26 20c0 7.33301 7.33301 18.333 22 33c20 20 46.667 45.333 80 76c22 19.333 37.333 28.666 46 27.999h3
c2.66699 2 6.33398 3 11.001 3c13.333 0 23.5 -5.83301 30.5 -17.5s10.5 -24.167 10.5 -37.5z" />
    <glyph glyph-name="threequarters" unicode="&#xbe;" horiz-adv-x="704" 
d="M665 134c0 -11.333 -4.66797 -18.668 -14.001 -22.001c-4 -1.33301 -13.333 -2 -28 -2c-0.666992 -16 -1 -32 -1 -48c-1.33301 -21.333 -5 -36 -11 -44c-8 -11.333 -16 -17 -24 -17c-15.333 0 -24.333 15.333 -27 46v62c-11.333 0 -30.333 0.333008 -57 1h-58
c-4 0 -10.167 -0.5 -18.5 -1.5s-14.833 -1.5 -19.5 -1.5c-22.667 0 -34 7.66699 -34 23c0 16.667 28.667 57.667 86 123c24 26.667 58.333 68.667 103 126c3.33301 4.66699 10 8.66699 20 12c4 8.66699 9.66699 13 17 13c6 0 12.833 -3.33301 20.5 -10s11.167 -13 10.5 -19
c2.66699 -6 4 -19.667 4 -41c0 -4.66699 -3 -59.667 -9 -165c-3.33301 0.666992 1.33398 1 14.001 1c7.33301 0 13.5 -4.16699 18.5 -12.5s7.5 -16.166 7.5 -23.499zM566.999 286.998l-55 -58c-25.333 -28 -40.333 -47.667 -45 -59c4 -0.666992 8.33301 -1 13 -1
c-2.66699 0 24.666 0.333008 81.999 1c0.666992 26 2.33398 65 5.00098 117zM585.999 687.998c0 -5.33301 -1.16992 -12.499 -3.50293 -21.499s-21.166 -42.833 -56.499 -101.5l-155 -254l-89 -155l-42 -73c-17.333 -28.667 -35.666 -50 -54.999 -64
c-26 -18.667 -45.333 -28 -58 -28c-6 0 -9 2.66699 -9 8c0 18 54.333 120 163 306c102 175.333 167.667 283.666 197 324.999c38.667 54 68.334 81 89.001 81c12.667 0 19 -7.66699 19 -23zM288.996 602.999c0 -26.667 -10.667 -50.334 -32 -71.001
c-5.33301 -5.33301 -16 -10.666 -32 -15.999c-12 -4 -24.333 -7.66699 -37 -11c18.667 -4.66699 41.667 -13.334 69 -26.001c21.333 -21.333 32 -45 32 -71c0 -22 -7.66699 -42.333 -23 -61s-34 -31 -56 -37c-10.667 -2.66699 -25.667 -4 -45 -4c-24 0 -48 3 -72 9
c-35.333 8 -53 20 -53 36c0 15.333 12 23 36 23c6.66699 0 18 -3.66699 34 -11s30.333 -11 43 -11c17.333 0 32 5.83301 44 17.5s18 26.5 18 44.5c0 19.333 -15.667 35.333 -47 48c-38 16 -59.667 27.333 -65 34s-8 10.667 -8 12c0 10 5 17.667 15 23
c18.667 10 32.334 14.667 41.001 14c25.333 9.33301 39.333 15 42 17c14.667 8.66699 22 20.334 22 35.001c0 17.333 -5.83301 32 -17.5 44s-26.5 18 -44.5 18c-12.667 0 -26.834 -3.66699 -42.501 -11s-27.167 -11 -34.5 -11c-23.333 0 -35 7.33301 -35 22
c0 16 17.333 28.333 52 37c24.667 5.33301 49 8 73 8c19.333 0 34 -1.33301 44 -4c22 -6 40.667 -18.167 56 -36.5s23 -38.5 23 -60.5z" />
    <glyph glyph-name="questiondown" unicode="&#xbf;" horiz-adv-x="471" 
d="M321 427c0 -16 -6 -30.667 -18 -44s-26 -20 -42 -20c-22 0 -39.167 8.33301 -51.5 25s-18.5 36.667 -18.5 60c0 18 5.66699 33.333 17 46s26 19 44 19c22 0 39 -8.5 51 -25.5s18 -37.167 18 -60.5zM505 -64c0 -12 -5.99707 -26.333 -17.9971 -43
c-9.33301 -12.667 -21 -22.667 -35 -30s-28 -14 -42 -20c-52.667 -24.667 -115.334 -37 -188.001 -37c-28 0 -50.667 3.33301 -68 10c-43.333 16.667 -83 51 -119 103c-20 29.333 -30 59.666 -30 90.999c0 22 8.66699 49.333 26 82c15.333 28 32 52 50 72l39 40
c13.333 16 24.666 28 33.999 36c7.33301 6 17.666 15 30.999 27c15.333 18.667 26 30.334 32 35.001c11.333 9.33301 25.333 16 42 20c12 3.33301 17.667 5 17 5c14.667 0 26.667 -5 36 -15s14 -22 14 -36c0 -20.667 -12.333 -41.667 -37 -63l-61 -49l-34 -40
c-44.667 -48 -67 -85.333 -67 -112c0 -4 1 -8 3 -12c30 -56.667 73.667 -85 131 -85c34 0 71.667 13.667 113 41c9.33301 9.33301 25.333 20.333 48 33c7.33301 2 14.333 3 21 3c15.333 0 29.5 -5.66699 42.5 -17s19.5 -24.333 19.5 -39z" />
    <glyph glyph-name="Agrave" unicode="&#xc0;" 
d="M624 66c0 -14.667 -5.16406 -27.332 -15.4971 -37.999s-22.5 -16 -36.5 -16c-18.667 0 -39.334 9.66699 -62.001 29c-11.333 10 -20.833 22.333 -28.5 37l-22.5 44c-3.33301 6 -7.66602 15 -12.999 27c-60 1.33301 -149.333 6.66602 -268 15.999
c-5.33301 -20 -14 -49.333 -26 -88l-10 -35c-3.33301 -12 -9.33301 -22 -18 -30c-16 -15.333 -31 -23 -45 -23c-16.667 0 -29.667 9 -39 27c-7.33301 14.667 -11 31 -11 49c0 16 6 41 18 75l27 76l89 295c9.33301 33.333 25 82.333 47 147c10 26 15.333 39.667 16 41
c9.33301 16 20.666 24 33.999 24c11.333 0 21.666 -4.33301 30.999 -13c0.666992 -0.666992 8 -9.66699 22 -27c6.66699 -7.33301 22 -35.333 46 -84l57 -116l54 -107l64 -129c13.333 -24 32.666 -60.667 57.999 -110l20 -35c8 -14 12 -26 12 -36zM396.003 263.002
c-57.333 117.333 -95.998 208.666 -115.998 273.999c-6.66699 -19.333 -30.334 -105.666 -71.001 -258.999c41.333 -4.66699 103.666 -9.66699 186.999 -15zM412.005 791.002c0 -12.667 -6.16602 -23.332 -18.499 -31.999s-25.166 -13 -38.499 -13
c-9.33301 0 -18.833 3.33301 -28.5 10l-28.5 19c-12.667 9.33301 -32.334 22.666 -59.001 39.999c-44.667 28 -91.334 59.333 -140.001 94c-4 7.33301 -6 15.333 -6 24c0 32.667 14.333 49 43 49c15.333 0 41.333 -11.667 78 -35c65.333 -41.333 117 -76.333 155 -105
c28.667 -22 43 -39 43 -51z" />
    <glyph glyph-name="Aacute" unicode="&#xc1;" 
d="M624 66c0 -14.667 -5.16406 -27.332 -15.4971 -37.999s-22.5 -16 -36.5 -16c-18.667 0 -39.334 9.66699 -62.001 29c-11.333 10 -20.833 22.333 -28.5 37l-22.5 44c-3.33301 6 -7.66602 15 -12.999 27c-60 1.33301 -149.333 6.66602 -268 15.999
c-5.33301 -20 -14 -49.333 -26 -88l-10 -35c-3.33301 -12 -9.33301 -22 -18 -30c-16 -15.333 -31 -23 -45 -23c-16.667 0 -29.667 9 -39 27c-7.33301 14.667 -11 31 -11 49c0 16 6 41 18 75l27 76l89 295c9.33301 33.333 25 82.333 47 147c10 26 15.333 39.667 16 41
c9.33301 16 20.666 24 33.999 24c11.333 0 21.666 -4.33301 30.999 -13c0.666992 -0.666992 8 -9.66699 22 -27c6.66699 -7.33301 22 -35.333 46 -84l57 -116l54 -107l64 -129c13.333 -24 32.666 -60.667 57.999 -110l20 -35c8 -14 12 -26 12 -36zM396.003 263.002
c-57.333 117.333 -95.998 208.666 -115.998 273.999c-6.66699 -19.333 -30.334 -105.666 -71.001 -258.999c41.333 -4.66699 103.666 -9.66699 186.999 -15zM453.005 933.002c0 -8.66699 -2.00098 -16.667 -6.00098 -24c-2 -4 -48.667 -35.333 -140 -94l-59 -40
c-9.33301 -6 -18.333 -12.333 -27 -19c-10.667 -6.66699 -20.667 -10 -30 -10c-13.333 0 -25.666 4 -36.999 12c-13.333 9.33301 -20 20.333 -20 33c0 12 14.333 29 43 51c38 28.667 89.667 63.667 155 105c36.667 23.333 62.667 35 78 35c28.667 0 43 -16.333 43 -49z" />
    <glyph glyph-name="Acircumflex" unicode="&#xc2;" 
d="M624 66c0 -14.667 -5.16406 -27.332 -15.4971 -37.999s-22.5 -16 -36.5 -16c-18.667 0 -39.334 9.66699 -62.001 29c-11.333 10 -20.833 22.333 -28.5 37l-22.5 44c-3.33301 6 -7.66602 15 -12.999 27c-60 1.33301 -149.333 6.66602 -268 15.999
c-5.33301 -20 -14 -49.333 -26 -88l-10 -35c-3.33301 -12 -9.33301 -22 -18 -30c-16 -15.333 -31 -23 -45 -23c-16.667 0 -29.667 9 -39 27c-7.33301 14.667 -11 31 -11 49c0 16 6 41 18 75l27 76l89 295c9.33301 33.333 25 82.333 47 147c10 26 15.333 39.667 16 41
c9.33301 16 20.666 24 33.999 24c11.333 0 21.666 -4.33301 30.999 -13c0.666992 -0.666992 8 -9.66699 22 -27c6.66699 -7.33301 22 -35.333 46 -84l57 -116l54 -107l64 -129c13.333 -24 32.666 -60.667 57.999 -110l20 -35c8 -14 12 -26 12 -36zM396.003 263.002
c-57.333 117.333 -95.998 208.666 -115.998 273.999c-6.66699 -19.333 -30.334 -105.666 -71.001 -258.999c41.333 -4.66699 103.666 -9.66699 186.999 -15zM484.005 787.002c0 -10 -4.50195 -18.335 -13.502 -25.002s-18.833 -10 -29.5 -10c-26 0 -46.667 10.833 -62 32.5
s-37.333 54.834 -66 99.501c-6 8 -14.333 20.333 -25 37l-44 -116l-11 -26c-4.66699 -11.333 -10.667 -19.666 -18 -24.999c-11.333 -7.33301 -22.666 -11 -33.999 -11c-12 0 -22.167 4.16699 -30.5 12.5s-12.5 18.5 -12.5 30.5c0 8 3.33301 18.667 10 32
c4.66699 10.667 9.66699 21.5 15 32.5s13 28 23 51l29 69.5c14 34 24.833 55.333 32.5 64s16.834 13 27.501 13c20.667 0 39.667 -12.667 57 -38l69 -102l49 -65l20.5 -28.5c9 -12.333 13.5 -21.5 13.5 -27.5z" />
    <glyph glyph-name="Atilde" unicode="&#xc3;" 
d="M624 66c0 -14.667 -5.16406 -27.332 -15.4971 -37.999s-22.5 -16 -36.5 -16c-18.667 0 -39.334 9.66699 -62.001 29c-11.333 10 -20.833 22.333 -28.5 37l-22.5 44c-3.33301 6 -7.66602 15 -12.999 27c-60 1.33301 -149.333 6.66602 -268 15.999
c-5.33301 -20 -14 -49.333 -26 -88l-10 -35c-3.33301 -12 -9.33301 -22 -18 -30c-16 -15.333 -31 -23 -45 -23c-16.667 0 -29.667 9 -39 27c-7.33301 14.667 -11 31 -11 49c0 16 6 41 18 75l27 76l89 295c9.33301 33.333 25 82.333 47 147c10 26 15.333 39.667 16 41
c9.33301 16 20.666 24 33.999 24c11.333 0 21.666 -4.33301 30.999 -13c0.666992 -0.666992 8 -9.66699 22 -27c6.66699 -7.33301 22 -35.333 46 -84l57 -116l54 -107l64 -129c13.333 -24 32.666 -60.667 57.999 -110l20 -35c8 -14 12 -26 12 -36zM396.003 263.002
c-57.333 117.333 -95.998 208.666 -115.998 273.999c-6.66699 -19.333 -30.334 -105.666 -71.001 -258.999c41.333 -4.66699 103.666 -9.66699 186.999 -15zM545.005 891.002c0 -34.667 -18.1689 -69.5039 -54.502 -104.504s-71.833 -52.5 -106.5 -52.5
c-51.333 0 -92.666 26.333 -123.999 79c-5.33301 12.667 -14 31.334 -26 56.001c-7.33301 9.33301 -17.333 24 -30 44c-3.33301 4.66699 -11.833 8.5 -25.5 11.5s-24.5 4.5 -32.5 4.5c-21.333 0 -32 -15.333 -32 -46c0 -20.667 4.66699 -35.5 14 -44.5s14 -17.5 14 -25.5
c0 -10 -4.5 -20.167 -13.5 -30.5s-18.5 -15.5 -28.5 -15.5c-16 0 -31 11.667 -45 35s-21 53 -21 89c0 30.667 8.33301 57.667 25 81c18.667 26.667 42.334 40 71.001 40h17c51.333 0 85.333 -6 102 -18c25.333 -19.333 42 -37.666 50 -54.999c4.66699 -15.333 13 -38 25 -68
c6 -12.667 12.5 -24.834 19.5 -36.501s18.5 -17.5 34.5 -17.5c26 0 49 15.667 69 47c7.33301 10.667 11 27.334 11 50.001c0 4.66699 -2.5 11.167 -7.5 19.5s-7.5 14.833 -7.5 19.5c0 10.667 5.5 20.334 16.5 29.001s21.5 13 31.5 13c8 0 15.333 -4.33301 22 -13l14 -21
c12 -17.333 18 -40.666 18 -69.999z" />
    <glyph glyph-name="Adieresis" unicode="&#xc4;" horiz-adv-x="627" 
d="M615 66c0 -14.667 -5.16406 -27.332 -15.4971 -37.999s-22.5 -16 -36.5 -16c-18.667 0 -39.334 9.66699 -62.001 29c-11.333 10 -20.833 22.333 -28.5 37l-22.5 44c-3.33301 6 -7.66602 15 -12.999 27c-60 1.33301 -149.333 6.66602 -268 15.999
c-5.33301 -20 -14 -49.333 -26 -88l-10 -35c-3.33301 -12 -9.33301 -22 -18 -30c-16 -15.333 -31 -23 -45 -23c-16.667 0 -29.667 9 -39 27c-7.33301 14.667 -11 31 -11 49c0 16 6 41 18 75l27 76l89 295c9.33301 33.333 25 82.333 47 147c10 26 15.333 39.667 16 41
c9.33301 16 20.666 24 33.999 24c11.333 0 21.666 -4.33301 30.999 -13c0.666992 -0.666992 8 -9.66699 22 -27c6.66699 -7.33301 22 -35.333 46 -84l57 -116l54 -107l64 -129c13.333 -24 32.666 -60.667 57.999 -110l20 -35c8 -14 12 -26 12 -36zM387.003 263.002
c-57.333 117.333 -95.998 208.666 -115.998 273.999c-6.66699 -19.333 -30.334 -105.666 -71.001 -258.999c41.333 -4.66699 103.666 -9.66699 186.999 -15zM519.005 832.002c0 -21.333 -8.00098 -38.334 -24.001 -51.001s-34.667 -19 -56 -19
c-20.667 0 -37.667 5.66699 -51 17s-20 27 -20 47c0 8.66699 3.33301 18.334 10 29.001c14.667 24.667 40.334 37 77.001 37c16 0 30.667 -6 44 -18s20 -26 20 -42zM229.004 832.001c0 -21.333 -8.00098 -38.334 -24.001 -51.001s-34.667 -19 -56 -19
c-20.667 0 -37.667 5.66699 -51 17s-20 27 -20 47c0 8.66699 3.33301 18.334 10 29.001c14.667 24.667 40.334 37 77.001 37c16 0 30.667 -6 44 -18s20 -26 20 -42z" />
    <glyph glyph-name="Aring" unicode="&#xc5;" 
d="M624 66c0 -14.667 -5.16406 -27.332 -15.4971 -37.999s-22.5 -16 -36.5 -16c-18.667 0 -39.334 9.66699 -62.001 29c-11.333 10 -20.833 22.333 -28.5 37l-22.5 44c-3.33301 6 -7.66602 15 -12.999 27c-60 1.33301 -149.333 6.66602 -268 15.999
c-5.33301 -20 -14 -49.333 -26 -88l-10 -35c-3.33301 -12 -9.33301 -22 -18 -30c-16 -15.333 -31 -23 -45 -23c-16.667 0 -29.667 9 -39 27c-7.33301 14.667 -11 31 -11 49c0 16 6 41 18 75l27 76l89 295c9.33301 33.333 25 82.333 47 147c10 26 15.333 39.667 16 41
c9.33301 16 20.666 24 33.999 24c11.333 0 21.666 -4.33301 30.999 -13c0.666992 -0.666992 8 -9.66699 22 -27c6.66699 -7.33301 22 -35.333 46 -84l57 -116l54 -107l64 -129c13.333 -24 32.666 -60.667 57.999 -110l20 -35c8 -14 12 -26 12 -36zM396.003 263.002
c-57.333 117.333 -95.998 208.666 -115.998 273.999c-6.66699 -19.333 -30.334 -105.666 -71.001 -258.999c41.333 -4.66699 103.666 -9.66699 186.999 -15zM487.005 886.002c0 -50 -19.666 -90 -58.999 -120c-36 -28 -79.333 -42 -130 -42
c-43.333 0 -80.333 14.5 -111 43.5s-46 64.833 -46 107.5c0 45.333 21.333 83 64 113c38.667 27.333 81.667 41 129 41c39.333 0 74.666 -14.167 105.999 -42.5s47 -61.833 47 -100.5zM391.006 884.002c0 15.333 -6.83301 28.833 -20.5 40.5s-28.5 17.5 -44.5 17.5
c-42 0 -71 -13 -87 -39c-6.66699 -10.667 -10 -19.667 -10 -27c0 -20.667 7 -36.667 21 -48s31.333 -17 52 -17c23.333 0 44 6.66699 62 20s27 31 27 53z" />
    <glyph glyph-name="AE" unicode="&#xc6;" horiz-adv-x="937" 
d="M945 53c0 -36 -13.002 -56 -39.002 -60c-29.333 -4 -69.333 -6 -120 -6c-14 0 -34.833 0.333008 -62.5 1s-48.167 1 -61.5 1c-8 0 -19.667 -0.5 -35 -1.5s-26.666 -1.5 -33.999 -1.5c-13.333 0 -29.666 2.66699 -48.999 8c-15.333 4 -27.333 13 -36 27
c-7.33301 11.333 -11 25.333 -11 42c0 24 0.333008 46 1 66c-58 1.33301 -144.333 6.66602 -259 15.999c-15.333 -20 -39 -49.333 -71 -88l-29 -35.5c-10 -12.333 -21 -22.166 -33 -29.499c-24 -15.333 -43 -23 -57 -23c-16.667 0 -25 8 -25 24c0 8 3.66699 22.333 11 43
c4.66699 15.333 23.667 42.333 57 81l70 79l241 295c25.333 32.667 65 80.667 119 144c4 2 12.5 11 25.5 27s20.833 24.333 23.5 25c0.666992 0 12.334 0.666992 35.001 2c29.333 1.33301 65.333 2 108 2c7.33301 0 17.833 0.333008 31.5 1s24.167 1 31.5 1
c42.667 0 72.334 -9 89.001 -27c14.667 -15.333 22 -29.333 22 -42c0 -28 -23.667 -45.667 -71 -53c-5.33301 -0.666992 -40 -2 -104 -4l-5 -1c-6 0 -14.333 0.5 -25 1.5s-18.334 1.5 -23.001 1.5c-18 0 -29.5 -2.83301 -34.5 -8.5s-7.5 -17.167 -7.5 -34.5
c0 -52 4.16699 -82.167 12.5 -90.5s27.166 -12.5 56.499 -12.5c8.66699 0 21.667 0.333008 39 1s30.333 1 39 1c32.667 0 49 -26 49 -78c0 -24 -8 -39.667 -24 -47c-9.33301 -4 -28 -6 -56 -6h-21h-21c-35.333 0 -56.833 -3.83301 -64.5 -11.5s-11.5 -29.5 -11.5 -65.5
c0 -54 5.66699 -83.333 17 -88c5.33301 -2 16.333 -3 33 -3c10 0 25 0.5 45 1.5s35 1.5 45 1.5c5.33301 0 13.666 -0.333008 24.999 -1s20 -1 26 -1c5.33301 0 13.333 0.333008 24 1s18.667 1 24 1c26.667 0 47.334 -7.33301 62.001 -22c18.667 -18.667 28 -36.667 28 -54z
M520.998 493c-9.33301 -10.667 -73.668 -92.334 -193.001 -245.001c40 -4.66699 100 -9.66699 180 -15c0 40 2.66699 99 8 177c2.66699 20.667 4.33398 48.334 5.00098 83.001z" />
    <glyph glyph-name="Ccedilla" unicode="&#xc7;" horiz-adv-x="665" 
d="M648 211c0 -13.333 -4.50098 -26.834 -13.501 -40.501l-26.5 -38.5c-27.333 -42 -65.333 -76.333 -114 -103c-46 -26 -92.333 -39.333 -139 -40v-44c20.667 -2.66699 40 -10 58 -22c21.333 -14 32 -30.333 32 -49c0 -26.667 -15 -46.667 -45 -60
c-22.667 -10 -49.667 -15 -81 -15c-7.33301 0 -14 0.333008 -20 1v45c12 -4 24 -6 36 -6s23.333 2.33301 34 7c14 6.66699 21 15.334 21 26.001c0 22.667 -27.667 33.667 -83 33v87c-36 6.66699 -74.667 25 -116 55c-28 20.667 -56.667 53 -86 97
c-26.667 40 -45.167 77.833 -55.5 113.5s-15.5 73.167 -15.5 112.5c0 110 36 198.667 108 266c13.333 12.667 23.333 21.334 30 26.001c10 8 21.667 14.333 35 19c22.667 9.33301 56.667 14 102 14c18.667 0 36.334 -1 53.001 -3c48 -5.33301 90.333 -16.333 127 -33
l42 -20.5c14 -7 25.667 -16.833 35 -29.5c12 -17.333 18 -32 18 -44c0 -15.333 -6.5 -28.666 -19.5 -39.999s-27.5 -17 -43.5 -17c-6.66699 0 -14 1 -22 3s-16.333 6.66699 -25 14c-13.333 11.333 -20.666 17.666 -21.999 18.999c-40.667 27.333 -78.334 41 -113.001 41
c-51.333 0 -94 -28.333 -128 -85c-26.667 -43.333 -40 -93 -40 -149c0 -25.333 5 -52.333 15 -81c29.333 -89.333 85.666 -134 168.999 -134c38.667 0 78.667 18 120 54c12.667 16 34.334 37.333 65.001 64c27.333 16 46 24 56 24c16 0 29 -7.66699 39 -23
c8.66699 -12.667 13 -27.334 13 -44.001z" />
    <glyph glyph-name="Egrave" unicode="&#xc8;" horiz-adv-x="498" 
d="M476 53c0 -36 -13 -55.999 -39 -59.999c-29.333 -4.66699 -68.666 -7 -117.999 -7c-14 0 -35 0.5 -63 1.5s-48.667 1.5 -62 1.5c-10 0 -24.5 -0.5 -43.5 -1.5s-33.167 -1.5 -42.5 -1.5c-28 0 -48 2.33301 -60 7c-20 7.33301 -30 22.333 -30 45c0 5.33301 0.5 13 1.5 23
s1.5 17.333 1.5 22c0 20 -0.333008 49.333 -1 88v88c0 43.333 0.5 108.333 1.5 195s1.5 151.667 1.5 195c0 8.66699 2.66699 16 8 22s15.666 10.667 30.999 14c28 6 60.333 9 97 9c9.33301 0 23.833 -0.5 43.5 -1.5s34.167 -1.5 43.5 -1.5c7.33301 0 17.833 0.333008 31.5 1
s24.167 1 31.5 1c42 0 71.333 -9 88 -27c14.667 -15.333 22 -29.333 22 -42c0 -38 -47 -57 -141 -57h-19c-8.66699 -0.666992 -15.334 -1 -20.001 -1c-5.33301 0 -13.333 0.5 -24 1.5s-18.667 1.5 -24 1.5c-18 0 -29.5 -2.66699 -34.5 -8s-7.5 -17 -7.5 -35
c0 -51.333 4 -81.333 12 -90s27.333 -13 58 -13c8.66699 0 21.5 0.333008 38.5 1s29.833 1 38.5 1c33.333 0 50 -27 50 -81c0 -26.667 -11.333 -42.334 -34 -47.001c-9.33301 -2 -39.666 -3 -90.999 -3c-34.667 0 -55.5 -4 -62.5 -12s-10.5 -29.667 -10.5 -65
c0 -54 5.33301 -83.333 16 -88c5.33301 -2 16.333 -3 33 -3c10 0 25 0.5 45 1.5s35 1.5 45 1.5c5.33301 0 13.666 -0.333008 24.999 -1s20 -1 26 -1c5.33301 0 13.333 0.333008 24 1s18.667 1 24 1c26.667 0 47.334 -7.33301 62.001 -22c18.667 -18.667 28 -36.667 28 -54z
M416 791.001c0 -12.667 -6.16602 -23.332 -18.499 -31.999s-25.166 -13 -38.499 -13c-9.33301 0 -18.833 3.33301 -28.5 10l-28.5 19c-12.667 9.33301 -32.334 22.666 -59.001 39.999c-44.667 28 -91.334 59.333 -140.001 94c-4 7.33301 -6 15.333 -6 24
c0 32.667 14.333 49 43 49c15.333 0 41.333 -11.667 78 -35c65.333 -41.333 117 -76.333 155 -105c28.667 -22 43 -39 43 -51z" />
    <glyph glyph-name="Eacute" unicode="&#xc9;" horiz-adv-x="497" 
d="M475 53c0 -36 -13 -55.999 -39 -59.999c-29.333 -4.66699 -68.666 -7 -117.999 -7c-14 0 -35 0.5 -63 1.5s-48.667 1.5 -62 1.5c-10 0 -24.5 -0.5 -43.5 -1.5s-33.167 -1.5 -42.5 -1.5c-28 0 -48 2.33301 -60 7c-20 7.33301 -30 22.333 -30 45c0 5.33301 0.5 13 1.5 23
s1.5 17.333 1.5 22c0 20 -0.333008 49.333 -1 88v88c0 43.333 0.5 108.333 1.5 195s1.5 151.667 1.5 195c0 8.66699 2.66699 16 8 22s15.666 10.667 30.999 14c28 6 60.333 9 97 9c9.33301 0 23.833 -0.5 43.5 -1.5s34.167 -1.5 43.5 -1.5c7.33301 0 17.833 0.333008 31.5 1
s24.167 1 31.5 1c42 0 71.333 -9 88 -27c14.667 -15.333 22 -29.333 22 -42c0 -38 -47 -57 -141 -57h-19c-8.66699 -0.666992 -15.334 -1 -20.001 -1c-5.33301 0 -13.333 0.5 -24 1.5s-18.667 1.5 -24 1.5c-18 0 -29.5 -2.66699 -34.5 -8s-7.5 -17 -7.5 -35
c0 -51.333 4 -81.333 12 -90s27.333 -13 58 -13c8.66699 0 21.5 0.333008 38.5 1s29.833 1 38.5 1c33.333 0 50 -27 50 -81c0 -26.667 -11.333 -42.334 -34 -47.001c-9.33301 -2 -39.666 -3 -90.999 -3c-34.667 0 -55.5 -4 -62.5 -12s-10.5 -29.667 -10.5 -65
c0 -54 5.33301 -83.333 16 -88c5.33301 -2 16.333 -3 33 -3c10 0 25 0.5 45 1.5s35 1.5 45 1.5c5.33301 0 13.666 -0.333008 24.999 -1s20 -1 26 -1c5.33301 0 13.333 0.333008 24 1s18.667 1 24 1c26.667 0 47.334 -7.33301 62.001 -22c18.667 -18.667 28 -36.667 28 -54z
M456 933.001c0 -8.66699 -2.00098 -16.667 -6.00098 -24c-2 -4 -48.667 -35.333 -140 -94l-59 -40c-9.33301 -6 -18.333 -12.333 -27 -19c-10.667 -6.66699 -20.667 -10 -30 -10c-13.333 0 -25.666 4 -36.999 12c-13.333 9.33301 -20 20.333 -20 33c0 12 14.333 29 43 51
c38 28.667 89.667 63.667 155 105c36.667 23.333 62.667 35 78 35c28.667 0 43 -16.333 43 -49z" />
    <glyph glyph-name="Ecircumflex" unicode="&#xca;" horiz-adv-x="499" 
d="M477 53c0 -36 -13 -55.999 -39 -59.999c-29.333 -4.66699 -68.666 -7 -117.999 -7c-14 0 -35 0.5 -63 1.5s-48.667 1.5 -62 1.5c-10 0 -24.5 -0.5 -43.5 -1.5s-33.167 -1.5 -42.5 -1.5c-28 0 -48 2.33301 -60 7c-20 7.33301 -30 22.333 -30 45c0 5.33301 0.5 13 1.5 23
s1.5 17.333 1.5 22c0 20 -0.333008 49.333 -1 88v88c0 43.333 0.5 108.333 1.5 195s1.5 151.667 1.5 195c0 8.66699 2.66699 16 8 22s15.666 10.667 30.999 14c28 6 60.333 9 97 9c9.33301 0 23.833 -0.5 43.5 -1.5s34.167 -1.5 43.5 -1.5c7.33301 0 17.833 0.333008 31.5 1
s24.167 1 31.5 1c42 0 71.333 -9 88 -27c14.667 -15.333 22 -29.333 22 -42c0 -38 -47 -57 -141 -57h-19c-8.66699 -0.666992 -15.334 -1 -20.001 -1c-5.33301 0 -13.333 0.5 -24 1.5s-18.667 1.5 -24 1.5c-18 0 -29.5 -2.66699 -34.5 -8s-7.5 -17 -7.5 -35
c0 -51.333 4 -81.333 12 -90s27.333 -13 58 -13c8.66699 0 21.5 0.333008 38.5 1s29.833 1 38.5 1c33.333 0 50 -27 50 -81c0 -26.667 -11.333 -42.334 -34 -47.001c-9.33301 -2 -39.666 -3 -90.999 -3c-34.667 0 -55.5 -4 -62.5 -12s-10.5 -29.667 -10.5 -65
c0 -54 5.33301 -83.333 16 -88c5.33301 -2 16.333 -3 33 -3c10 0 25 0.5 45 1.5s35 1.5 45 1.5c5.33301 0 13.666 -0.333008 24.999 -1s20 -1 26 -1c5.33301 0 13.333 0.333008 24 1s18.667 1 24 1c26.667 0 47.334 -7.33301 62.001 -22c18.667 -18.667 28 -36.667 28 -54z
M449 787.001c0 -10 -4.50195 -18.335 -13.502 -25.002s-18.833 -10 -29.5 -10c-26 0 -46.667 10.833 -62 32.5s-37.333 54.834 -66 99.501c-6 8 -14.333 20.333 -25 37l-44 -116l-11 -26c-4.66699 -11.333 -10.667 -19.666 -18 -24.999
c-11.333 -7.33301 -22.666 -11 -33.999 -11c-12 0 -22.167 4.16699 -30.5 12.5s-12.5 18.5 -12.5 30.5c0 8 3.33301 18.667 10 32c4.66699 10.667 9.66699 21.5 15 32.5s13 28 23 51l29 69.5c14 34 24.833 55.333 32.5 64s16.834 13 27.501 13
c20.667 0 39.667 -12.667 57 -38l69 -102l49 -65l20.5 -28.5c9 -12.333 13.5 -21.5 13.5 -27.5z" />
    <glyph glyph-name="Edieresis" unicode="&#xcb;" horiz-adv-x="489" 
d="M468 53c0 -36 -13 -55.999 -39 -59.999c-29.333 -4.66699 -68.666 -7 -117.999 -7c-14 0 -35 0.5 -63 1.5s-48.667 1.5 -62 1.5c-10 0 -24.5 -0.5 -43.5 -1.5s-33.167 -1.5 -42.5 -1.5c-28 0 -48 2.33301 -60 7c-20 7.33301 -30 22.333 -30 45c0 5.33301 0.5 13 1.5 23
s1.5 17.333 1.5 22c0 20 -0.333008 49.333 -1 88v88c0 43.333 0.5 108.333 1.5 195s1.5 151.667 1.5 195c0 8.66699 2.66699 16 8 22s15.666 10.667 30.999 14c28 6 60.333 9 97 9c9.33301 0 23.833 -0.5 43.5 -1.5s34.167 -1.5 43.5 -1.5c7.33301 0 17.833 0.333008 31.5 1
s24.167 1 31.5 1c42 0 71.333 -9 88 -27c14.667 -15.333 22 -29.333 22 -42c0 -38 -47 -57 -141 -57h-19c-8.66699 -0.666992 -15.334 -1 -20.001 -1c-5.33301 0 -13.333 0.5 -24 1.5s-18.667 1.5 -24 1.5c-18 0 -29.5 -2.66699 -34.5 -8s-7.5 -17 -7.5 -35
c0 -51.333 4 -81.333 12 -90s27.333 -13 58 -13c8.66699 0 21.5 0.333008 38.5 1s29.833 1 38.5 1c33.333 0 50 -27 50 -81c0 -26.667 -11.333 -42.334 -34 -47.001c-9.33301 -2 -39.666 -3 -90.999 -3c-34.667 0 -55.5 -4 -62.5 -12s-10.5 -29.667 -10.5 -65
c0 -54 5.33301 -83.333 16 -88c5.33301 -2 16.333 -3 33 -3c10 0 25 0.5 45 1.5s35 1.5 45 1.5c5.33301 0 13.666 -0.333008 24.999 -1s20 -1 26 -1c5.33301 0 13.333 0.333008 24 1s18.667 1 24 1c26.667 0 47.334 -7.33301 62.001 -22c18.667 -18.667 28 -36.667 28 -54z
M524 832.001c0 -21.333 -8.00098 -38.334 -24.001 -51.001s-34.667 -19 -56 -19c-20.667 0 -37.667 5.66699 -51 17s-20 27 -20 47c0 8.66699 3.33301 18.334 10 29.001c14.667 24.667 40.334 37 77.001 37c16 0 30.667 -6 44 -18s20 -26 20 -42zM233.999 832
c0 -21.333 -8.00098 -38.334 -24.001 -51.001s-34.667 -19 -56 -19c-20.667 0 -37.667 5.66699 -51 17s-20 27 -20 47c0 8.66699 3.33301 18.334 10 29.001c14.667 24.667 40.334 37 77.001 37c16 0 30.667 -6 44 -18s20 -26 20 -42z" />
    <glyph glyph-name="Igrave" unicode="&#xcc;" horiz-adv-x="303" 
d="M237 613c0 -42 -2 -93.6641 -6 -154.997c-4 -52 -7.66699 -103.667 -11 -155c-0.666992 -32 -2.66699 -80 -6 -144l-2 -71c-2 -28.667 -8.66699 -50.334 -20 -65.001c-16.667 -20.667 -33.667 -31 -51 -31c-38 0 -57 37.667 -57 113c0 110.667 5 248.667 15 414
c3.33301 57.333 6.66602 94.666 9.99902 111.999c10 54 27.667 81 53 81c20.667 0 38.334 -9.33301 53.001 -28s22 -42.334 22 -71.001zM325 791.003c0 -12.667 -6.16602 -23.332 -18.499 -31.999s-25.166 -13 -38.499 -13c-9.33301 0 -18.833 3.33301 -28.5 10l-28.5 19
c-12.667 9.33301 -32.334 22.666 -59.001 39.999c-44.667 28 -91.334 59.333 -140.001 94c-4 7.33301 -6 15.333 -6 24c0 32.667 14.333 49 43 49c15.333 0 41.333 -11.667 78 -35c65.333 -41.333 117 -76.333 155 -105c28.667 -22 43 -39 43 -51z" />
    <glyph glyph-name="Iacute" unicode="&#xcd;" horiz-adv-x="318" 
d="M211 613c0 -42 -2 -93.6641 -6 -154.997c-4 -52 -7.66699 -103.667 -11 -155c-0.666992 -32 -2.66699 -80 -6 -144l-2 -71c-2 -28.667 -8.66699 -50.334 -20 -65.001c-16.667 -20.667 -33.667 -31 -51 -31c-38 0 -57 37.667 -57 113c0 110.667 5 248.667 15 414
c3.33301 57.333 6.66602 94.666 9.99902 111.999c10 54 27.667 81 53 81c20.667 0 38.334 -9.33301 53.001 -28s22 -42.334 22 -71.001zM340 933.003c0 -8.66699 -2.00098 -16.667 -6.00098 -24c-2 -4 -48.667 -35.333 -140 -94l-59 -40
c-9.33301 -6 -18.333 -12.333 -27 -19c-10.667 -6.66699 -20.667 -10 -30 -10c-13.333 0 -25.666 4 -36.999 12c-13.333 9.33301 -20 20.333 -20 33c0 12 14.333 29 43 51c38 28.667 89.667 63.667 155 105c36.667 23.333 62.667 35 78 35c28.667 0 43 -16.333 43 -49z" />
    <glyph glyph-name="Icircumflex" unicode="&#xce;" horiz-adv-x="330" 
d="M243 613c0 -42 -2 -93.6641 -6 -154.997c-4 -52 -7.66699 -103.667 -11 -155c-0.666992 -32 -2.66699 -80 -6 -144l-2 -71c-2 -28.667 -8.66699 -50.334 -20 -65.001c-16.667 -20.667 -33.667 -31 -51 -31c-38 0 -57 37.667 -57 113c0 110.667 5 248.667 15 414
c3.33301 57.333 6.66602 94.666 9.99902 111.999c10 54 27.667 81 53 81c20.667 0 38.334 -9.33301 53.001 -28s22 -42.334 22 -71.001zM353 787.003c0 -10 -4.50195 -18.335 -13.502 -25.002s-18.833 -10 -29.5 -10c-26 0 -46.667 10.833 -62 32.5
s-37.333 54.834 -66 99.501c-6 8 -14.333 20.333 -25 37l-44 -116l-11 -26c-4.66699 -11.333 -10.667 -19.666 -18 -24.999c-11.333 -7.33301 -22.666 -11 -33.999 -11c-12 0 -22.167 4.16699 -30.5 12.5s-12.5 18.5 -12.5 30.5c0 8 3.33301 18.667 10 32
c4.66699 10.667 9.66699 21.5 15 32.5s13 28 23 51l29 69.5c14 34 24.833 55.333 32.5 64s16.834 13 27.501 13c20.667 0 39.667 -12.667 57 -38l69 -102l49 -65l20.5 -28.5c9 -12.333 13.5 -21.5 13.5 -27.5z" />
    <glyph glyph-name="Idieresis" unicode="&#xcf;" horiz-adv-x="408" 
d="M263 613c0 -42 -2 -93.6641 -6 -154.997c-4 -52 -7.66699 -103.667 -11 -155c-0.666992 -32 -2.66699 -80 -6 -144l-2 -71c-2 -28.667 -8.66699 -50.334 -20 -65.001c-16.667 -20.667 -33.667 -31 -51 -31c-38 0 -57 37.667 -57 113c0 110.667 5 248.667 15 414
c3.33301 57.333 6.66602 94.666 9.99902 111.999c10 54 27.667 81 53 81c20.667 0 38.334 -9.33301 53.001 -28s22 -42.334 22 -71.001zM437 832.003c0 -21.333 -8.00098 -38.334 -24.001 -51.001s-34.667 -19 -56 -19c-20.667 0 -37.667 5.66699 -51 17s-20 27 -20 47
c0 8.66699 3.33301 18.334 10 29.001c14.667 24.667 40.334 37 77.001 37c16 0 30.667 -6 44 -18s20 -26 20 -42zM146.999 832.002c0 -21.333 -8.00098 -38.334 -24.001 -51.001s-34.667 -19 -56 -19c-20.667 0 -37.667 5.66699 -51 17s-20 27 -20 47
c0 8.66699 3.33301 18.334 10 29.001c14.667 24.667 40.334 37 77.001 37c16 0 30.667 -6 44 -18s20 -26 20 -42z" />
    <glyph glyph-name="Eth" unicode="&#xd0;" horiz-adv-x="727" 
d="M679 369c0 -40.667 -4.66797 -77.668 -14.001 -111.001c-10.667 -35.333 -29.334 -73.333 -56.001 -114c-29.333 -44 -58 -76.333 -86 -97c-54 -38.667 -108 -58 -162 -58c-15.333 0 -38.166 0.5 -68.499 1.5s-53.166 1.5 -68.499 1.5
c-4.66699 0 -12.167 -0.333008 -22.5 -1s-18.166 -1 -23.499 -1c-7.33301 0 -12 0.666992 -14 2c-18.667 9.33301 -28 45.333 -28 108c0 64 1.33301 130.333 4 199c-21.333 1.33301 -35 2.33301 -41 3c-12 2.66699 -24.667 8 -38 16l-16.5 10.5
c-5.66699 3.66699 -8.5 8.5 -8.5 14.5c0 36.667 36 53.334 108 50.001c1.33301 32 3.66602 74 6.99902 126s6 85.333 8 100c6.66699 45.333 18.667 74.333 36 87c6 4.66699 15.333 7 28 7c10 0 24.5 -1.66699 43.5 -5s32.5 -5.33301 40.5 -6
c11.333 -0.666992 24.333 -1 39 -1c5.33301 0 13.833 0.333008 25.5 1s20.5 1 26.5 1c36.667 0 73 -7.33301 109 -22c20 -8 41.667 -23 65 -45c71.333 -67.333 107 -156.333 107 -267zM542.999 350.999c0 55.333 -13.332 105 -39.999 149
c-15.333 25.333 -24.666 40.333 -27.999 45c-11.333 16 -24.333 27.667 -39 35c-19.333 10 -39 15 -59 15c-10.667 0 -25.667 -0.666992 -45 -2c-21.333 -1.33301 -36 -2.33301 -44 -3c-1.33301 -44 -5 -112.667 -11 -206l55 -4c81.333 -5.33301 122 -24.333 122 -57
c0 -30 -25.667 -45 -77 -45c-12 0 -47.333 3.66699 -106 11c-0.666992 -20 -2.66699 -72.667 -6 -158c4.66699 1.33301 9 2 13 2c4.66699 0 12.667 -1.83301 24 -5.5s20.666 -5.5 27.999 -5.5l42 4c16.667 1.33301 40.167 10.833 70.5 28.5s55.166 46.167 74.499 85.5
c17.333 36 26 73 26 111z" />
    <glyph glyph-name="Ntilde" unicode="&#xd1;" horiz-adv-x="596" 
d="M551 617c0 -7.33301 -1.32812 -17.8369 -3.99512 -31.5039s-4.33398 -23.834 -5.00098 -30.501c-8 -185.333 -12 -278.666 -12 -279.999c0 -17.333 0.5 -43.166 1.5 -77.499s1.5 -60.166 1.5 -77.499v-39c-0.666992 -17.333 -1 -30.333 -1 -39
c0 -16.667 -5.16699 -31 -15.5 -43s-23.5 -18 -39.5 -18c-26.667 0 -52.334 31.333 -77.001 94c-42 108.667 -93.667 201 -155 277c-4.66699 -66 -13.334 -133.333 -26.001 -202c-4 -24 -11.333 -59.667 -22 -107c-12 -44 -46.667 -66 -104 -66c-34 0 -51 15.667 -51 47
c0 9.33301 2 21.333 6 36c2.66699 8 8.5 18.167 17.5 30.5s14.5 20.833 16.5 25.5c32 62 48 182 48 360c0 8.66699 -0.666992 21.667 -2 39s-2 30.333 -2 39c0 46.667 15.333 70 46 70c5.33301 0 11 -0.833008 17 -2.5s17.333 -11.5 34 -29.5
c6 -6.66699 27.333 -37.667 64 -93c43.333 -65.333 69 -105 77 -119c28 -45.333 48.667 -87.666 62 -126.999c1.33301 42 2 85 2 129c0 20 -0.5 50.5 -1.5 91.5s-1.5 71.5 -1.5 91.5c0 4.66699 -0.5 11.834 -1.5 21.501s-1.5 16.834 -1.5 21.501c0 18 6.66699 36.5 20 55.5
s28.666 28.5 45.999 28.5c15.333 0 29.666 -8.33301 42.999 -25s20 -33.334 20 -50.001zM539.005 890.996c0 -34.667 -18.1689 -69.5039 -54.502 -104.504s-71.833 -52.5 -106.5 -52.5c-51.333 0 -92.666 26.333 -123.999 79c-5.33301 12.667 -14 31.334 -26 56.001
c-7.33301 9.33301 -17.333 24 -30 44c-3.33301 4.66699 -11.833 8.5 -25.5 11.5s-24.5 4.5 -32.5 4.5c-21.333 0 -32 -15.333 -32 -46c0 -20.667 4.66699 -35.5 14 -44.5s14 -17.5 14 -25.5c0 -10 -4.5 -20.167 -13.5 -30.5s-18.5 -15.5 -28.5 -15.5
c-16 0 -31 11.667 -45 35s-21 53 -21 89c0 30.667 8.33301 57.667 25 81c18.667 26.667 42.334 40 71.001 40h17c51.333 0 85.333 -6 102 -18c25.333 -19.333 42 -37.666 50 -54.999c4.66699 -15.333 13 -38 25 -68c6 -12.667 12.5 -24.834 19.5 -36.501
s18.5 -17.5 34.5 -17.5c26 0 49 15.667 69 47c7.33301 10.667 11 27.334 11 50.001c0 4.66699 -2.5 11.167 -7.5 19.5s-7.5 14.833 -7.5 19.5c0 10.667 5.5 20.334 16.5 29.001s21.5 13 31.5 13c8 0 15.333 -4.33301 22 -13l14 -21c12 -17.333 18 -40.666 18 -69.999z" />
    <glyph glyph-name="Ograve" unicode="&#xd2;" horiz-adv-x="721" 
d="M676 304c0 -117.333 -51.665 -207 -154.998 -269c-52.667 -32 -109 -48 -169 -48c-78.667 0 -146.667 28.333 -204 85c-30.667 31.333 -56.667 74 -78 128c-18.667 49.333 -28 95.333 -28 138c0 42 8.66699 86.333 26 133c14 39.333 30 70 48 92
c59.333 72.667 138.666 109 237.999 109c77.333 0 144.333 -22 201 -66c35.333 -27.333 62.666 -59.333 81.999 -96c26 -47.333 39 -116 39 -206zM561.002 302c0 12 -1.99805 29.333 -5.99805 52c-13.333 85.333 -49 145 -107 179c-32.667 19.333 -62.334 29 -89.001 29
c-20.667 0 -45.334 -6 -74.001 -18c-80.667 -33.333 -121 -94.666 -121 -183.999c0 -40 2.66699 -68.833 8 -86.5s15 -37.5 29 -59.5c23.333 -36 47 -62 71 -78c27.333 -19.333 61 -29 101 -29c48 0 89.667 17.667 125 53c42 41.333 63 88.666 63 141.999zM403.004 791
c0 -12.667 -6.16602 -23.332 -18.499 -31.999s-25.166 -13 -38.499 -13c-9.33301 0 -18.833 3.33301 -28.5 10l-28.5 19c-12.667 9.33301 -32.334 22.666 -59.001 39.999c-44.667 28 -91.334 59.333 -140.001 94c-4 7.33301 -6 15.333 -6 24c0 32.667 14.333 49 43 49
c15.333 0 41.333 -11.667 78 -35c65.333 -41.333 117 -76.333 155 -105c28.667 -22 43 -39 43 -51z" />
    <glyph glyph-name="Oacute" unicode="&#xd3;" horiz-adv-x="721" 
d="M676 304c0 -117.333 -51.665 -207 -154.998 -269c-52.667 -32 -109 -48 -169 -48c-78.667 0 -146.667 28.333 -204 85c-30.667 31.333 -56.667 74 -78 128c-18.667 49.333 -28 95.333 -28 138c0 42 8.66699 86.333 26 133c14 39.333 30 70 48 92
c59.333 72.667 138.666 109 237.999 109c77.333 0 144.333 -22 201 -66c35.333 -27.333 62.666 -59.333 81.999 -96c26 -47.333 39 -116 39 -206zM561.002 302c0 12 -1.99805 29.333 -5.99805 52c-13.333 85.333 -49 145 -107 179c-32.667 19.333 -62.334 29 -89.001 29
c-20.667 0 -45.334 -6 -74.001 -18c-80.667 -33.333 -121 -94.666 -121 -183.999c0 -40 2.66699 -68.833 8 -86.5s15 -37.5 29 -59.5c23.333 -36 47 -62 71 -78c27.333 -19.333 61 -29 101 -29c48 0 89.667 17.667 125 53c42 41.333 63 88.666 63 141.999zM444.004 933
c0 -8.66699 -2.00098 -16.667 -6.00098 -24c-2 -4 -48.667 -35.333 -140 -94l-59 -40c-9.33301 -6 -18.333 -12.333 -27 -19c-10.667 -6.66699 -20.667 -10 -30 -10c-13.333 0 -25.666 4 -36.999 12c-13.333 9.33301 -20 20.333 -20 33c0 12 14.333 29 43 51
c38 28.667 89.667 63.667 155 105c36.667 23.333 62.667 35 78 35c28.667 0 43 -16.333 43 -49z" />
    <glyph glyph-name="Ocircumflex" unicode="&#xd4;" horiz-adv-x="721" 
d="M676 304c0 -117.333 -51.665 -207 -154.998 -269c-52.667 -32 -109 -48 -169 -48c-78.667 0 -146.667 28.333 -204 85c-30.667 31.333 -56.667 74 -78 128c-18.667 49.333 -28 95.333 -28 138c0 42 8.66699 86.333 26 133c14 39.333 30 70 48 92
c59.333 72.667 138.666 109 237.999 109c77.333 0 144.333 -22 201 -66c35.333 -27.333 62.666 -59.333 81.999 -96c26 -47.333 39 -116 39 -206zM561.002 302c0 12 -1.99805 29.333 -5.99805 52c-13.333 85.333 -49 145 -107 179c-32.667 19.333 -62.334 29 -89.001 29
c-20.667 0 -45.334 -6 -74.001 -18c-80.667 -33.333 -121 -94.666 -121 -183.999c0 -40 2.66699 -68.833 8 -86.5s15 -37.5 29 -59.5c23.333 -36 47 -62 71 -78c27.333 -19.333 61 -29 101 -29c48 0 89.667 17.667 125 53c42 41.333 63 88.666 63 141.999zM525.004 787
c0 -10 -4.50195 -18.335 -13.502 -25.002s-18.833 -10 -29.5 -10c-26 0 -46.667 10.833 -62 32.5s-37.333 54.834 -66 99.501c-6 8 -14.333 20.333 -25 37l-44 -116l-11 -26c-4.66699 -11.333 -10.667 -19.666 -18 -24.999c-11.333 -7.33301 -22.666 -11 -33.999 -11
c-12 0 -22.167 4.16699 -30.5 12.5s-12.5 18.5 -12.5 30.5c0 8 3.33301 18.667 10 32c4.66699 10.667 9.66699 21.5 15 32.5s13 28 23 51l29 69.5c14 34 24.833 55.333 32.5 64s16.834 13 27.501 13c20.667 0 39.667 -12.667 57 -38l69 -102l49 -65l20.5 -28.5
c9 -12.333 13.5 -21.5 13.5 -27.5z" />
    <glyph glyph-name="Otilde" unicode="&#xd5;" horiz-adv-x="724" 
d="M679 304c0 -117.333 -51.665 -207 -154.998 -269c-52.667 -32 -109 -48 -169 -48c-78.667 0 -146.667 28.333 -204 85c-30.667 31.333 -56.667 74 -78 128c-18.667 49.333 -28 95.333 -28 138c0 42 8.66699 86.333 26 133c14 39.333 30 70 48 92
c59.333 72.667 138.666 109 237.999 109c77.333 0 144.333 -22 201 -66c35.333 -27.333 62.666 -59.333 81.999 -96c26 -47.333 39 -116 39 -206zM564.002 302c0 12 -1.99805 29.333 -5.99805 52c-13.333 85.333 -49 145 -107 179c-32.667 19.333 -62.334 29 -89.001 29
c-20.667 0 -45.334 -6 -74.001 -18c-80.667 -33.333 -121 -94.666 -121 -183.999c0 -40 2.66699 -68.833 8 -86.5s15 -37.5 29 -59.5c23.333 -36 47 -62 71 -78c27.333 -19.333 61 -29 101 -29c48 0 89.667 17.667 125 53c42 41.333 63 88.666 63 141.999zM599.004 891
c0 -34.667 -18.1689 -69.5039 -54.502 -104.504s-71.833 -52.5 -106.5 -52.5c-51.333 0 -92.666 26.333 -123.999 79c-5.33301 12.667 -14 31.334 -26 56.001c-7.33301 9.33301 -17.333 24 -30 44c-3.33301 4.66699 -11.833 8.5 -25.5 11.5s-24.5 4.5 -32.5 4.5
c-21.333 0 -32 -15.333 -32 -46c0 -20.667 4.66699 -35.5 14 -44.5s14 -17.5 14 -25.5c0 -10 -4.5 -20.167 -13.5 -30.5s-18.5 -15.5 -28.5 -15.5c-16 0 -31 11.667 -45 35s-21 53 -21 89c0 30.667 8.33301 57.667 25 81c18.667 26.667 42.334 40 71.001 40h17
c51.333 0 85.333 -6 102 -18c25.333 -19.333 42 -37.666 50 -54.999c4.66699 -15.333 13 -38 25 -68c6 -12.667 12.5 -24.834 19.5 -36.501s18.5 -17.5 34.5 -17.5c26 0 49 15.667 69 47c7.33301 10.667 11 27.334 11 50.001c0 4.66699 -2.5 11.167 -7.5 19.5
s-7.5 14.833 -7.5 19.5c0 10.667 5.5 20.334 16.5 29.001s21.5 13 31.5 13c8 0 15.333 -4.33301 22 -13l14 -21c12 -17.333 18 -40.666 18 -69.999z" />
    <glyph glyph-name="Odieresis" unicode="&#xd6;" horiz-adv-x="716" 
d="M671 304c0 -117.333 -51.665 -207 -154.998 -269c-52.667 -32 -109 -48 -169 -48c-78.667 0 -146.667 28.333 -204 85c-30.667 31.333 -56.667 74 -78 128c-18.667 49.333 -28 95.333 -28 138c0 42 8.66699 86.333 26 133c14 39.333 30 70 48 92
c59.333 72.667 138.666 109 237.999 109c77.333 0 144.333 -22 201 -66c35.333 -27.333 62.666 -59.333 81.999 -96c26 -47.333 39 -116 39 -206zM556.002 302c0 12 -1.99805 29.333 -5.99805 52c-13.333 85.333 -49 145 -107 179c-32.667 19.333 -62.334 29 -89.001 29
c-20.667 0 -45.334 -6 -74.001 -18c-80.667 -33.333 -121 -94.666 -121 -183.999c0 -40 2.66699 -68.833 8 -86.5s15 -37.5 29 -59.5c23.333 -36 47 -62 71 -78c27.333 -19.333 61 -29 101 -29c48 0 89.667 17.667 125 53c42 41.333 63 88.666 63 141.999zM544.004 832
c0 -21.333 -8.00098 -38.334 -24.001 -51.001s-34.667 -19 -56 -19c-20.667 0 -37.667 5.66699 -51 17s-20 27 -20 47c0 8.66699 3.33301 18.334 10 29.001c14.667 24.667 40.334 37 77.001 37c16 0 30.667 -6 44 -18s20 -26 20 -42zM254.003 831.999
c0 -21.333 -8.00098 -38.334 -24.001 -51.001s-34.667 -19 -56 -19c-20.667 0 -37.667 5.66699 -51 17s-20 27 -20 47c0 8.66699 3.33301 18.334 10 29.001c14.667 24.667 40.334 37 77.001 37c16 0 30.667 -6 44 -18s20 -26 20 -42z" />
    <glyph glyph-name="multiply" unicode="&#xd7;" horiz-adv-x="485" 
d="M434 197l-49 -49l-137 138l-138 -137l-48 49l137 137l-137 137l48 48l137 -136l137 138l49 -48l-137 -140z" />
    <glyph glyph-name="Oslash" unicode="&#xd8;" horiz-adv-x="725" 
d="M681 304c0 -117.333 -51.999 -207.002 -155.999 -269.002c-52.667 -32 -110 -48 -172 -48c-42 0 -84 10 -126 30c-28.667 -24 -52.667 -36 -72 -36c-14 0 -21 6.33301 -21 19c0 14.667 7.66699 37.334 23 68.001c-33.333 32.667 -61 76.667 -83 132
c-18.667 49.333 -28 95.333 -28 138c0 42 8.66699 86.333 26 133c14.667 40 30.667 70.667 48 92c60 72.667 139.333 109 238 109c54 0 99.333 -8.33301 136 -25c29.333 35.333 53.666 53 72.999 53c21.333 0 32 -11.667 32 -35c0 -15.333 -8.66699 -38.666 -26 -69.999
c43.333 -36 73 -80 89 -132c12.667 -39.333 19 -92.333 19 -159zM565.001 301.998c0 30 -4.99902 62.001 -14.999 96.001c-10.667 36.667 -24.334 65.667 -41.001 87l-113 -190c-8 -12.667 -40.333 -70.334 -97 -173.001c22 -10 49 -15 81 -15c50 0 93.333 20 130 60
s55 85 55 135zM427.002 545.999c-20.667 10.667 -41.667 15.999 -63 15.999c-22 0 -47 -6 -75 -18c-80.667 -33.333 -121 -94.666 -121 -183.999c0 -39.333 3 -69.333 9 -90c6.66699 -22.667 21.667 -49.667 45 -81c44 82 112.333 201 205 357z" />
    <glyph glyph-name="Ugrave" unicode="&#xd9;" horiz-adv-x="673" 
d="M625 249c0 -16 -0.667969 -30.668 -2.00098 -44.001c-7.33301 -56 -35 -108 -83 -156c-24.667 -24 -47.667 -40.167 -69 -48.5s-49.666 -12.5 -84.999 -12.5c-46.667 0 -98.334 14.333 -155.001 43c-39.333 19.333 -67.833 39 -85.5 59s-32.5 46.333 -44.5 79
c-4.66699 13.333 -12.667 42.333 -24 87c-17.333 69.333 -26 149.333 -26 240c0 9.33301 -0.833008 23 -2.5 41s-2.5 31.667 -2.5 41c0 18.667 3.5 37.667 10.5 57s12.833 32 17.5 38c8.66699 11.333 20.667 17 36 17c8.66699 0 19 -2 31 -6c32.667 -10 49 -37.667 49 -83
v-24c-0.666992 -10.667 -1 -18.667 -1 -24c0 -6 0.333008 -15.167 1 -27.5s1 -21.5 1 -27.5c0 -17.333 -0.666992 -43 -2 -77s-2 -59.667 -2 -77c0 -101.333 37.333 -168.666 112 -201.999c27.333 -12.667 50.333 -19 69 -19c52 0 90.667 23.333 116 70
c10.667 18.667 16 39.334 16 62.001c0 8 -0.833008 20.167 -2.5 36.5s-2.5 28.5 -2.5 36.5c0 47.333 -4 96.333 -12 147c-2 14 -9.66699 42 -23 84c-10 32.667 -15 61.667 -15 87c0 34.667 16 52 48 52c16.667 0 30.334 -4.33301 41.001 -13
c7.33301 -5.33301 17 -16.333 29 -33c10 -13.333 17 -28.333 21 -45s7.66699 -33.334 11 -50.001c8 -34 15.333 -96.667 22 -188c5.33301 -72.667 8 -112.667 8 -120zM407.999 790.999c0 -12.667 -6.16602 -23.332 -18.499 -31.999s-25.166 -13 -38.499 -13
c-9.33301 0 -18.833 3.33301 -28.5 10l-28.5 19c-12.667 9.33301 -32.334 22.666 -59.001 39.999c-44.667 28 -91.334 59.333 -140.001 94c-4 7.33301 -6 15.333 -6 24c0 32.667 14.333 49 43 49c15.333 0 41.333 -11.667 78 -35c65.333 -41.333 117 -76.333 155 -105
c28.667 -22 43 -39 43 -51z" />
    <glyph glyph-name="Uacute" unicode="&#xda;" horiz-adv-x="673" 
d="M625 249c0 -16 -0.667969 -30.668 -2.00098 -44.001c-7.33301 -56 -35 -108 -83 -156c-24.667 -24 -47.667 -40.167 -69 -48.5s-49.666 -12.5 -84.999 -12.5c-46.667 0 -98.334 14.333 -155.001 43c-39.333 19.333 -67.833 39 -85.5 59s-32.5 46.333 -44.5 79
c-4.66699 13.333 -12.667 42.333 -24 87c-17.333 69.333 -26 149.333 -26 240c0 9.33301 -0.833008 23 -2.5 41s-2.5 31.667 -2.5 41c0 18.667 3.5 37.667 10.5 57s12.833 32 17.5 38c8.66699 11.333 20.667 17 36 17c8.66699 0 19 -2 31 -6c32.667 -10 49 -37.667 49 -83
v-24c-0.666992 -10.667 -1 -18.667 -1 -24c0 -6 0.333008 -15.167 1 -27.5s1 -21.5 1 -27.5c0 -17.333 -0.666992 -43 -2 -77s-2 -59.667 -2 -77c0 -101.333 37.333 -168.666 112 -201.999c27.333 -12.667 50.333 -19 69 -19c52 0 90.667 23.333 116 70
c10.667 18.667 16 39.334 16 62.001c0 8 -0.833008 20.167 -2.5 36.5s-2.5 28.5 -2.5 36.5c0 47.333 -4 96.333 -12 147c-2 14 -9.66699 42 -23 84c-10 32.667 -15 61.667 -15 87c0 34.667 16 52 48 52c16.667 0 30.334 -4.33301 41.001 -13
c7.33301 -5.33301 17 -16.333 29 -33c10 -13.333 17 -28.333 21 -45s7.66699 -33.334 11 -50.001c8 -34 15.333 -96.667 22 -188c5.33301 -72.667 8 -112.667 8 -120zM448.999 932.999c0 -8.66699 -2.00098 -16.667 -6.00098 -24c-2 -4 -48.667 -35.333 -140 -94l-59 -40
c-9.33301 -6 -18.333 -12.333 -27 -19c-10.667 -6.66699 -20.667 -10 -30 -10c-13.333 0 -25.666 4 -36.999 12c-13.333 9.33301 -20 20.333 -20 33c0 12 14.333 29 43 51c38 28.667 89.667 63.667 155 105c36.667 23.333 62.667 35 78 35c28.667 0 43 -16.333 43 -49z" />
    <glyph glyph-name="Ucircumflex" unicode="&#xdb;" horiz-adv-x="673" 
d="M625 249c0 -16 -0.667969 -30.668 -2.00098 -44.001c-7.33301 -56 -35 -108 -83 -156c-24.667 -24 -47.667 -40.167 -69 -48.5s-49.666 -12.5 -84.999 -12.5c-46.667 0 -98.334 14.333 -155.001 43c-39.333 19.333 -67.833 39 -85.5 59s-32.5 46.333 -44.5 79
c-4.66699 13.333 -12.667 42.333 -24 87c-17.333 69.333 -26 149.333 -26 240c0 9.33301 -0.833008 23 -2.5 41s-2.5 31.667 -2.5 41c0 18.667 3.5 37.667 10.5 57s12.833 32 17.5 38c8.66699 11.333 20.667 17 36 17c8.66699 0 19 -2 31 -6c32.667 -10 49 -37.667 49 -83
v-24c-0.666992 -10.667 -1 -18.667 -1 -24c0 -6 0.333008 -15.167 1 -27.5s1 -21.5 1 -27.5c0 -17.333 -0.666992 -43 -2 -77s-2 -59.667 -2 -77c0 -101.333 37.333 -168.666 112 -201.999c27.333 -12.667 50.333 -19 69 -19c52 0 90.667 23.333 116 70
c10.667 18.667 16 39.334 16 62.001c0 8 -0.833008 20.167 -2.5 36.5s-2.5 28.5 -2.5 36.5c0 47.333 -4 96.333 -12 147c-2 14 -9.66699 42 -23 84c-10 32.667 -15 61.667 -15 87c0 34.667 16 52 48 52c16.667 0 30.334 -4.33301 41.001 -13
c7.33301 -5.33301 17 -16.333 29 -33c10 -13.333 17 -28.333 21 -45s7.66699 -33.334 11 -50.001c8 -34 15.333 -96.667 22 -188c5.33301 -72.667 8 -112.667 8 -120zM479.999 786.999c0 -10 -4.50195 -18.335 -13.502 -25.002s-18.833 -10 -29.5 -10
c-26 0 -46.667 10.833 -62 32.5s-37.333 54.834 -66 99.501c-6 8 -14.333 20.333 -25 37l-44 -116l-11 -26c-4.66699 -11.333 -10.667 -19.666 -18 -24.999c-11.333 -7.33301 -22.666 -11 -33.999 -11c-12 0 -22.167 4.16699 -30.5 12.5s-12.5 18.5 -12.5 30.5
c0 8 3.33301 18.667 10 32c4.66699 10.667 9.66699 21.5 15 32.5s13 28 23 51l29 69.5c14 34 24.833 55.333 32.5 64s16.834 13 27.501 13c20.667 0 39.667 -12.667 57 -38l69 -102l49 -65l20.5 -28.5c9 -12.333 13.5 -21.5 13.5 -27.5z" />
    <glyph glyph-name="Udieresis" unicode="&#xdc;" horiz-adv-x="666" 
d="M619 249c0 -16 -0.667969 -30.668 -2.00098 -44.001c-7.33301 -56 -35 -108 -83 -156c-24.667 -24 -47.667 -40.167 -69 -48.5s-49.666 -12.5 -84.999 -12.5c-46.667 0 -98.334 14.333 -155.001 43c-39.333 19.333 -67.833 39 -85.5 59s-32.5 46.333 -44.5 79
c-4.66699 13.333 -12.667 42.333 -24 87c-17.333 69.333 -26 149.333 -26 240c0 9.33301 -0.833008 23 -2.5 41s-2.5 31.667 -2.5 41c0 18.667 3.5 37.667 10.5 57s12.833 32 17.5 38c8.66699 11.333 20.667 17 36 17c8.66699 0 19 -2 31 -6c32.667 -10 49 -37.667 49 -83
v-24c-0.666992 -10.667 -1 -18.667 -1 -24c0 -6 0.333008 -15.167 1 -27.5s1 -21.5 1 -27.5c0 -17.333 -0.666992 -43 -2 -77s-2 -59.667 -2 -77c0 -101.333 37.333 -168.666 112 -201.999c27.333 -12.667 50.333 -19 69 -19c52 0 90.667 23.333 116 70
c10.667 18.667 16 39.334 16 62.001c0 8 -0.833008 20.167 -2.5 36.5s-2.5 28.5 -2.5 36.5c0 47.333 -4 96.333 -12 147c-2 14 -9.66699 42 -23 84c-10 32.667 -15 61.667 -15 87c0 34.667 16 52 48 52c16.667 0 30.334 -4.33301 41.001 -13
c7.33301 -5.33301 17 -16.333 29 -33c10 -13.333 17 -28.333 21 -45s7.66699 -33.334 11 -50.001c8 -34 15.333 -96.667 22 -188c5.33301 -72.667 8 -112.667 8 -120zM517.999 831.999c0 -21.333 -8.00098 -38.334 -24.001 -51.001s-34.667 -19 -56 -19
c-20.667 0 -37.667 5.66699 -51 17s-20 27 -20 47c0 8.66699 3.33301 18.334 10 29.001c14.667 24.667 40.334 37 77.001 37c16 0 30.667 -6 44 -18s20 -26 20 -42zM227.998 831.998c0 -21.333 -8.00098 -38.334 -24.001 -51.001s-34.667 -19 -56 -19
c-20.667 0 -37.667 5.66699 -51 17s-20 27 -20 47c0 8.66699 3.33301 18.334 10 29.001c14.667 24.667 40.334 37 77.001 37c16 0 30.667 -6 44 -18s20 -26 20 -42z" />
    <glyph glyph-name="Yacute" unicode="&#xdd;" horiz-adv-x="638" 
d="M626 660c0 -9.33301 -5.99902 -23.3291 -17.999 -41.9961c-8.66699 -12.667 -21.334 -32.334 -38.001 -59.001l-110 -191l-59 -99c-3.33301 -26 -8 -64.667 -14 -116c-0.666992 -16.667 -2.66699 -41.667 -6 -75c-0.666992 -12.667 -1.66699 -25.667 -3 -39
s-7.66602 -24 -18.999 -32c-15.333 -10.667 -32.333 -16 -51 -16c-37.333 0 -56 20 -56 60c0 63.333 5.66699 142.333 17 237l-14 25l-94 148l-54 86c-12 15.333 -28.667 39.666 -50 72.999l-16 22c-7.33301 10 -11 17.667 -11 23c0 11.333 6 20.666 18 27.999s24 11 36 11
c22 0 43.667 -6.66699 65 -20c11.333 -6.66699 20.166 -14.834 26.499 -24.501l18.5 -29.5l45 -80l54 -89c20.667 -35.333 36 -67 46 -95h6l117 223l36 65c4 8 8.33301 15.833 13 23.5s11.667 14.167 21 19.5c16.667 9.33301 32 14 46 14c32 0 48 -17 48 -51z
M483.001 933.004c0 -8.66699 -2.00098 -16.667 -6.00098 -24c-2 -4 -48.667 -35.333 -140 -94l-59 -40c-9.33301 -6 -18.333 -12.333 -27 -19c-10.667 -6.66699 -20.667 -10 -30 -10c-13.333 0 -25.666 4 -36.999 12c-13.333 9.33301 -20 20.333 -20 33
c0 12 14.333 29 43 51c38 28.667 89.667 63.667 155 105c36.667 23.333 62.667 35 78 35c28.667 0 43 -16.333 43 -49z" />
    <glyph glyph-name="Thorn" unicode="&#xde;" horiz-adv-x="575" 
d="M552 373c0 -25.333 -7.66602 -53.6631 -22.999 -84.9961c-46.667 -97.333 -131 -146 -253 -146c-31.333 0 -64.333 3 -99 9v-28.5v-29.5c0 -6 -1 -25 -3 -57c-3.33301 -43.333 -22.666 -65 -57.999 -65c-9.33301 0 -20.333 2 -33 6c-21.333 7.33301 -35 19 -41 35
c-4.66699 12 -7 23.333 -7 34c0 5.33301 0.833008 13.666 2.5 24.999s2.5 19.666 2.5 24.999l-1 8c-2.66699 114 -4 168 -4 162c0 21.333 1.66699 50.666 5 87.999c4 41.333 6 71 6 89l1 7c0 4 -0.333008 9 -1 15v14c0 6 1.16699 13.833 3.5 23.5s3.5 17 3.5 22
s1 7.83301 3 8.5c2.66699 38 6 68 10 90c8.66699 44.667 20.667 69 36 73c3.33301 0.666992 6.66602 1 9.99902 1c36 0 59 -22.333 69 -67c2 -8.66699 2.33301 -34 1 -76c11.333 0.666992 28 1 50 1c113.333 0 185.666 -5.66699 216.999 -17c28.667 -10 55 -37.333 79 -82
c16 -30.667 24 -58.334 24 -83.001zM438.001 376.003c0 62 -49.333 92.999 -148 92.999c-36 0 -74 -3 -114 -9c-4 -51.333 -6 -76.666 -6 -75.999l1 -114c39.333 -14 86 -21 140 -21c36 0 66.167 12 90.5 36s36.5 54.333 36.5 91z" />
    <glyph glyph-name="germandbls" unicode="&#xdf;" horiz-adv-x="616" 
d="M569 538c0 -42.667 -3.33398 -73.3311 -10.001 -91.998c-8 -20.667 -25.667 -45.667 -53 -75c-5.33301 -5.33301 -12.333 -10 -21 -14c21.333 -16 40.166 -39.5 56.499 -70.5s24.5 -59.5 24.5 -85.5c0 -25.333 -7.33301 -54 -22 -86c-8 -16 -24.667 -36.667 -50 -62
c-44 -43.333 -81.667 -71.666 -113 -84.999l-30 110c62.667 34 94 75.667 94 125c0 31.333 -14 54.666 -42 69.999c-22.667 12 -51 18 -85 18c-50 0 -89.667 -1.66699 -119 -5v-6c0 -65.333 5.66699 -146.333 17 -243l-18 -72c-7.33301 -2.66699 -15.333 -4 -24 -4
c-6 0 -12 0.333008 -18 1c-16 3.33301 -27.333 7.5 -34 12.5s-13.667 15.167 -21 30.5s-12.333 37 -15 65l-6 69c-8 51.333 -15.333 140.333 -22 267c-4.66699 89.333 -7 139.666 -7 150.999v22c36 39.333 73.667 72.333 113 99c50.667 34.667 96.334 52 137.001 52
c6.66699 0 22 -1 46 -3c38.667 -2.66699 74 -12.334 106 -29.001c46.667 -24.667 80.334 -60.667 101.001 -108c10 -22.667 15 -40 15 -52zM451.999 529.003c0 26.667 -9.00098 49.333 -27.001 68s-56.333 28 -115 28c-20 0 -46.167 -5.83301 -78.5 -17.5
s-55.166 -24.167 -68.499 -37.5l19 -185c14.667 1.33301 29.667 2 45 2c14.667 0 36.167 -0.833008 64.5 -2.5s49.833 -2.5 64.5 -2.5c16 0 33.667 9 53 27c28.667 26.667 43 66.667 43 120z" />
    <glyph glyph-name="agrave" unicode="&#xe0;" horiz-adv-x="614" 
d="M571 466c0 -5.33301 -4.99805 -81.334 -14.998 -228.001c-0.666992 -25.333 -2.33398 -63.333 -5.00098 -114l-2 -56c-2 -22 -8 -39 -18 -51c-14 -16.667 -29.333 -25 -46 -25c-23.333 0 -38.333 14.667 -45 44c-50 -34.667 -101.333 -52 -154 -52c-62 0 -116 23 -162 69
c-25.333 24.667 -46 58.334 -62 101.001c-15.333 40 -23 76.667 -23 110c0 31.333 7 66 21 104c11.333 30.667 24 55 38 73c47.333 58 109.666 87 186.999 87c65.333 0 122.333 -20.333 171 -61c8 48.667 24.667 73 50 73c18.667 0 34.167 -7.5 46.5 -22.5
s18.5 -32.167 18.5 -51.5zM438.002 234.999c0 22 -3.83203 46.334 -11.499 73.001s-17.834 48 -30.501 64c-10 12.667 -23.667 24 -41 34c-24.667 14 -46 21 -64 21c-15.333 0 -33.333 -4.33301 -54 -13c-59.333 -24.667 -88.666 -69.334 -87.999 -134.001v-15
c0 -34 9 -65 27 -93c33.333 -52.667 74.666 -79 123.999 -79c54 0 94.333 26.333 121 79c11.333 22 17 43 17 63zM435.003 627c0 -12.667 -6.16602 -23.332 -18.499 -31.999s-25.166 -13 -38.499 -13c-9.33301 0 -18.833 3.33301 -28.5 10l-28.5 19
c-12.667 9.33301 -32.334 22.666 -59.001 39.999c-44.667 28 -91.334 59.333 -140.001 94c-4 7.33301 -6 15.333 -6 24c0 32.667 14.333 49 43 49c15.333 0 41.333 -11.667 78 -35c65.333 -41.333 117 -76.333 155 -105c28.667 -22 43 -39 43 -51z" />
    <glyph glyph-name="aacute" unicode="&#xe1;" horiz-adv-x="610" 
d="M573 466c0 -5.33301 -4.99805 -81.334 -14.998 -228.001c-0.666992 -25.333 -2.33398 -63.333 -5.00098 -114l-2 -56c-2 -22 -8 -39 -18 -51c-14 -16.667 -29.333 -25 -46 -25c-23.333 0 -38.333 14.667 -45 44c-50 -34.667 -101.333 -52 -154 -52c-62 0 -116 23 -162 69
c-25.333 24.667 -46 58.334 -62 101.001c-15.333 40 -23 76.667 -23 110c0 31.333 7 66 21 104c11.333 30.667 24 55 38 73c47.333 58 109.666 87 186.999 87c65.333 0 122.333 -20.333 171 -61c8 48.667 24.667 73 50 73c18.667 0 34.167 -7.5 46.5 -22.5
s18.5 -32.167 18.5 -51.5zM440.002 234.999c0 22 -3.83203 46.334 -11.499 73.001s-17.834 48 -30.501 64c-10 12.667 -23.667 24 -41 34c-24.667 14 -46 21 -64 21c-15.333 0 -33.333 -4.33301 -54 -13c-59.333 -24.667 -88.666 -69.334 -87.999 -134.001v-15
c0 -34 9 -65 27 -93c33.333 -52.667 74.666 -79 123.999 -79c54 0 94.333 26.333 121 79c11.333 22 17 43 17 63zM438.003 769c0 -8.66699 -2.00098 -16.667 -6.00098 -24c-2 -4 -48.667 -35.333 -140 -94l-59 -40c-9.33301 -6 -18.333 -12.333 -27 -19
c-10.667 -6.66699 -20.667 -10 -30 -10c-13.333 0 -25.666 4 -36.999 12c-13.333 9.33301 -20 20.333 -20 33c0 12 14.333 29 43 51c38 28.667 89.667 63.667 155 105c36.667 23.333 62.667 35 78 35c28.667 0 43 -16.333 43 -49z" />
    <glyph glyph-name="acircumflex" unicode="&#xe2;" horiz-adv-x="614" 
d="M571 466c0 -5.33301 -4.99805 -81.334 -14.998 -228.001c-0.666992 -25.333 -2.33398 -63.333 -5.00098 -114l-2 -56c-2 -22 -8 -39 -18 -51c-14 -16.667 -29.333 -25 -46 -25c-23.333 0 -38.333 14.667 -45 44c-50 -34.667 -101.333 -52 -154 -52c-62 0 -116 23 -162 69
c-25.333 24.667 -46 58.334 -62 101.001c-15.333 40 -23 76.667 -23 110c0 31.333 7 66 21 104c11.333 30.667 24 55 38 73c47.333 58 109.666 87 186.999 87c65.333 0 122.333 -20.333 171 -61c8 48.667 24.667 73 50 73c18.667 0 34.167 -7.5 46.5 -22.5
s18.5 -32.167 18.5 -51.5zM438.002 234.999c0 22 -3.83203 46.334 -11.499 73.001s-17.834 48 -30.501 64c-10 12.667 -23.667 24 -41 34c-24.667 14 -46 21 -64 21c-15.333 0 -33.333 -4.33301 -54 -13c-59.333 -24.667 -88.666 -69.334 -87.999 -134.001v-15
c0 -34 9 -65 27 -93c33.333 -52.667 74.666 -79 123.999 -79c54 0 94.333 26.333 121 79c11.333 22 17 43 17 63zM467.003 623c0 -10 -4.50195 -18.335 -13.502 -25.002s-18.833 -10 -29.5 -10c-26 0 -46.667 10.833 -62 32.5s-37.333 54.834 -66 99.501
c-6 8 -14.333 20.333 -25 37l-44 -116l-11 -26c-4.66699 -11.333 -10.667 -19.666 -18 -24.999c-11.333 -7.33301 -22.666 -11 -33.999 -11c-12 0 -22.167 4.16699 -30.5 12.5s-12.5 18.5 -12.5 30.5c0 8 3.33301 18.667 10 32c4.66699 10.667 9.66699 21.5 15 32.5
s13 28 23 51l29 69.5c14 34 24.833 55.333 32.5 64s16.834 13 27.501 13c20.667 0 39.667 -12.667 57 -38l69 -102l49 -65l20.5 -28.5c9 -12.333 13.5 -21.5 13.5 -27.5z" />
    <glyph glyph-name="atilde" unicode="&#xe3;" horiz-adv-x="616" 
d="M569 466c0 -5.33301 -4.99805 -81.334 -14.998 -228.001c-0.666992 -25.333 -2.33398 -63.333 -5.00098 -114l-2 -56c-2 -22 -8 -39 -18 -51c-14 -16.667 -29.333 -25 -46 -25c-23.333 0 -38.333 14.667 -45 44c-50 -34.667 -101.333 -52 -154 -52c-62 0 -116 23 -162 69
c-25.333 24.667 -46 58.334 -62 101.001c-15.333 40 -23 76.667 -23 110c0 31.333 7 66 21 104c11.333 30.667 24 55 38 73c47.333 58 109.666 87 186.999 87c65.333 0 122.333 -20.333 171 -61c8 48.667 24.667 73 50 73c18.667 0 34.167 -7.5 46.5 -22.5
s18.5 -32.167 18.5 -51.5zM436.002 234.999c0 22 -3.83203 46.334 -11.499 73.001s-17.834 48 -30.501 64c-10 12.667 -23.667 24 -41 34c-24.667 14 -46 21 -64 21c-15.333 0 -33.333 -4.33301 -54 -13c-59.333 -24.667 -88.666 -69.334 -87.999 -134.001v-15
c0 -34 9 -65 27 -93c33.333 -52.667 74.666 -79 123.999 -79c54 0 94.333 26.333 121 79c11.333 22 17 43 17 63zM546.003 727c0 -34.667 -18.1689 -69.5039 -54.502 -104.504s-71.833 -52.5 -106.5 -52.5c-51.333 0 -92.666 26.333 -123.999 79
c-5.33301 12.667 -14 31.334 -26 56.001c-7.33301 9.33301 -17.333 24 -30 44c-3.33301 4.66699 -11.833 8.5 -25.5 11.5s-24.5 4.5 -32.5 4.5c-21.333 0 -32 -15.333 -32 -46c0 -20.667 4.66699 -35.5 14 -44.5s14 -17.5 14 -25.5c0 -10 -4.5 -20.167 -13.5 -30.5
s-18.5 -15.5 -28.5 -15.5c-16 0 -31 11.667 -45 35s-21 53 -21 89c0 30.667 8.33301 57.667 25 81c18.667 26.667 42.334 40 71.001 40h17c51.333 0 85.333 -6 102 -18c25.333 -19.333 42 -37.666 50 -54.999c4.66699 -15.333 13 -38 25 -68
c6 -12.667 12.5 -24.834 19.5 -36.501s18.5 -17.5 34.5 -17.5c26 0 49 15.667 69 47c7.33301 10.667 11 27.334 11 50.001c0 4.66699 -2.5 11.167 -7.5 19.5s-7.5 14.833 -7.5 19.5c0 10.667 5.5 20.334 16.5 29.001s21.5 13 31.5 13c8 0 15.333 -4.33301 22 -13l14 -21
c12 -17.333 18 -40.666 18 -69.999z" />
    <glyph glyph-name="adieresis" unicode="&#xe4;" horiz-adv-x="618" 
d="M573 466c0 -5.33301 -4.99805 -81.334 -14.998 -228.001c-0.666992 -25.333 -2.33398 -63.333 -5.00098 -114l-2 -56c-2 -22 -8 -39 -18 -51c-14 -16.667 -29.333 -25 -46 -25c-23.333 0 -38.333 14.667 -45 44c-50 -34.667 -101.333 -52 -154 -52c-62 0 -116 23 -162 69
c-25.333 24.667 -46 58.334 -62 101.001c-15.333 40 -23 76.667 -23 110c0 31.333 7 66 21 104c11.333 30.667 24 55 38 73c47.333 58 109.666 87 186.999 87c65.333 0 122.333 -20.333 171 -61c8 48.667 24.667 73 50 73c18.667 0 34.167 -7.5 46.5 -22.5
s18.5 -32.167 18.5 -51.5zM440.002 234.999c0 22 -3.83203 46.334 -11.499 73.001s-17.834 48 -30.501 64c-10 12.667 -23.667 24 -41 34c-24.667 14 -46 21 -64 21c-15.333 0 -33.333 -4.33301 -54 -13c-59.333 -24.667 -88.666 -69.334 -87.999 -134.001v-15
c0 -34 9 -65 27 -93c33.333 -52.667 74.666 -79 123.999 -79c54 0 94.333 26.333 121 79c11.333 22 17 43 17 63zM523.003 668c0 -21.333 -8.00098 -38.334 -24.001 -51.001s-34.667 -19 -56 -19c-20.667 0 -37.667 5.66699 -51 17s-20 27 -20 47
c0 8.66699 3.33301 18.334 10 29.001c14.667 24.667 40.334 37 77.001 37c16 0 30.667 -6 44 -18s20 -26 20 -42zM233.002 667.999c0 -21.333 -8.00098 -38.334 -24.001 -51.001s-34.667 -19 -56 -19c-20.667 0 -37.667 5.66699 -51 17s-20 27 -20 47
c0 8.66699 3.33301 18.334 10 29.001c14.667 24.667 40.334 37 77.001 37c16 0 30.667 -6 44 -18s20 -26 20 -42z" />
    <glyph glyph-name="aring" unicode="&#xe5;" horiz-adv-x="637" 
d="M577 466c0 -5.33301 -4.99805 -81.334 -14.998 -228.001c-0.666992 -25.333 -2.33398 -63.333 -5.00098 -114l-2 -56c-2 -22 -8 -39 -18 -51c-14 -16.667 -29.333 -25 -46 -25c-23.333 0 -38.333 14.667 -45 44c-50 -34.667 -101.333 -52 -154 -52c-62 0 -116 23 -162 69
c-25.333 24.667 -46 58.334 -62 101.001c-15.333 40 -23 76.667 -23 110c0 31.333 7 66 21 104c11.333 30.667 24 55 38 73c47.333 58 109.666 87 186.999 87c65.333 0 122.333 -20.333 171 -61c8 48.667 24.667 73 50 73c18.667 0 34.167 -7.5 46.5 -22.5
s18.5 -32.167 18.5 -51.5zM444.002 234.999c0 22 -3.83203 46.334 -11.499 73.001s-17.834 48 -30.501 64c-10 12.667 -23.667 24 -41 34c-24.667 14 -46 21 -64 21c-15.333 0 -33.333 -4.33301 -54 -13c-59.333 -24.667 -88.666 -69.334 -87.999 -134.001v-15
c0 -34 9 -65 27 -93c33.333 -52.667 74.666 -79 123.999 -79c54 0 94.333 26.333 121 79c11.333 22 17 43 17 63zM478.003 684c0 -50 -19.666 -90 -58.999 -120c-36 -28 -79.333 -42 -130 -42c-43.333 0 -80.333 14.5 -111 43.5s-46 64.833 -46 107.5
c0 45.333 21.333 83 64 113c38.667 27.333 81.667 41 129 41c39.333 0 74.666 -14.167 105.999 -42.5s47 -61.833 47 -100.5zM382.004 682c0 15.333 -6.83301 28.833 -20.5 40.5s-28.5 17.5 -44.5 17.5c-42 0 -71 -13 -87 -39c-6.66699 -10.667 -10 -19.667 -10 -27
c0 -20.667 7 -36.667 21 -48s31.333 -17 52 -17c23.333 0 44 6.66699 62 20s27 31 27 53z" />
    <glyph glyph-name="ae" unicode="&#xe6;" horiz-adv-x="1000" 
d="M958 169c0 -10.667 -3.66797 -21.499 -11.001 -32.499l-21 -32.5c-22.667 -34 -53 -61.667 -91 -83c-40 -22 -77.667 -33 -113 -33c-29.333 0 -59.5 7.66699 -90.5 23s-56.5 34.333 -76.5 57c-1.33301 -18.667 -7.33301 -35.667 -18 -51c-12.667 -16.667 -28 -25 -46 -25
c-23.333 0 -38.333 14.667 -45 44c-50 -34.667 -101.333 -52 -154 -52c-62 0 -116 23 -162 69c-24.667 24.667 -45.334 58.334 -62.001 101.001c-15.333 39.333 -23 76 -23 110c0 32 7 66.667 21 104c11.333 30.667 24 55 38 73c47.333 58 109.666 87 186.999 87
c65.333 0 122.333 -20.333 171 -61c8 48.667 24.667 73 50 73c14.667 0 25 -4 31 -12c3.33301 -4.66699 6 -13.334 8 -26.001s5 -21.667 9 -27c2.66699 10 7.33398 24.667 14.001 44c4.66699 12 21.334 21.333 50.001 28c21.333 4.66699 41.333 7 60 7
c22 0 42.667 -1.33301 62 -4c16.667 -2 35.334 -10 56.001 -24l52 -35c14.667 -8 29.667 -24.667 45 -50l34 -61c4.66699 -8.66699 7.66699 -16.334 9 -23.001c4.66699 -6 7 -14.333 7 -25c0 -33.333 -20 -55 -60 -65c-42 -10 -83.333 -18 -124 -24
c-37.333 -6.66699 -93.333 -16 -168 -28c23.333 -65.333 64.333 -98 123 -98c39.333 0 78 22.333 116 67c25.333 29.333 51 44 77 44c14 0 25 -6.16699 33 -18.5s12 -25.833 12 -40.5zM827.999 367.001c-8 16.667 -22.3311 34.666 -42.998 53.999
c-22.667 20.667 -42.334 32.334 -59.001 35.001h-13c-64 0 -105 -43.333 -123 -130c21.333 4.66699 53.666 11 96.999 19zM444.001 235c0 22 -3.83203 46.334 -11.499 73.001s-17.834 48 -30.501 64c-10 12.667 -23.667 24 -41 34c-24.667 14 -46 21 -64 21
c-15.333 0 -33.333 -4.33301 -54 -13c-59.333 -24.667 -88.666 -69.334 -87.999 -134.001v-15c0 -34 9 -65 27 -93c33.333 -52.667 74.666 -79 123.999 -79c54 0 94.333 26.333 121 79c11.333 22 17 43 17 63z" />
    <glyph glyph-name="ccedilla" unicode="&#xe7;" horiz-adv-x="559" 
d="M534 170c0 -11.333 -3.66992 -22.5 -11.0029 -33.5l-21 -32.5c-22.667 -33.333 -53.334 -61 -92.001 -83c-31.333 -17.333 -59.666 -27.333 -84.999 -30v-46c20.667 -2.66699 40 -10 58 -22c21.333 -14 32 -30.333 32 -49c0 -26.667 -15 -46.667 -45 -60
c-22.667 -10 -49.667 -15 -81 -15c-7.33301 0 -14 0.333008 -20 1v45c12 -4 24 -6 36 -6s23.333 2.33301 34 7c14 6.66699 21 15.334 21 26.001c0 22.667 -27.667 33.667 -83 33v85c-35.333 2.66699 -72.333 18 -111 46c-22.667 16.667 -45.667 42.667 -69 78
c-37.333 56.667 -55.666 116.667 -54.999 180v3c0 90 32.667 164 98 222c12.667 11.333 26 20 40 26c19.333 6.66699 47 10 83 10c14.667 0 28.334 -0.666992 41.001 -2c38.667 -4 72.667 -12.667 102 -26c22.667 -10.667 35.667 -17 39 -19
c10.667 -7.33301 20.667 -18 30 -32c6 -10.667 9 -20.667 9 -30c0 -14 -6 -26.167 -18 -36.5s-25.333 -15.5 -40 -15.5c-12.667 0 -32.667 10.167 -60 30.5s-53.666 30.5 -78.999 30.5c-38 0 -69 -19.667 -93 -59c-20 -34 -30 -71.333 -30 -112
c0 -44 10.667 -81.333 32 -112c24.667 -35.333 58 -53 100 -53c38.667 0 76.667 22 114 66c25.333 30 51.333 45 78 45c14 0 25.167 -6.33301 33.5 -19s12.5 -26.334 12.5 -41.001z" />
    <glyph glyph-name="egrave" unicode="&#xe8;" horiz-adv-x="575" 
d="M531 169c0 -10.667 -3.50098 -21.501 -10.501 -32.501l-21.5 -32.5c-22.667 -34 -53.334 -61.833 -92.001 -83.5s-76 -32.5 -112 -32.5c-43.333 0 -87 16 -131 48c-22.667 16.667 -45.667 42.667 -69 78c-37.333 56.667 -56 116.667 -56 180v3
c0 92.667 32.667 166.667 98 222c9.33301 8 30 17.333 62 28c14 4.66699 33.333 7 58 7c22.667 0 43.334 -1.33301 62.001 -4c16 -2 43 -16.333 81 -43l41 -26c8.66699 -6.66699 18.667 -19.667 30 -39c28 -47.333 43 -75.666 45 -84.999c4 -6 6 -14.333 6 -25
c0 -33.333 -19.667 -55 -59 -65c-41.333 -10 -83 -18 -125 -24c-37.333 -6.66699 -93 -16 -167 -28c22.667 -65.333 63.667 -98 123 -98c24.667 0 46.667 6.33301 66 19c13.333 9.33301 30 25.333 50 48c24.667 29.333 50.334 44 77.001 44c13.333 0 24 -6.16699 32 -18.5
s12 -25.833 12 -40.5zM401.999 366.999c-8 16.667 -23 35 -45 55s-41 31.333 -57 34h-14c-63.333 0 -104 -43.333 -122 -130c21.333 4.66699 53.333 11 96 19c32 4.66699 79.333 12 142 22zM425.999 626.999c0 -12.667 -6.16602 -23.332 -18.499 -31.999
s-25.166 -13 -38.499 -13c-9.33301 0 -18.833 3.33301 -28.5 10l-28.5 19c-12.667 9.33301 -32.334 22.666 -59.001 39.999c-44.667 28 -91.334 59.333 -140.001 94c-4 7.33301 -6 15.333 -6 24c0 32.667 14.333 49 43 49c15.333 0 41.333 -11.667 78 -35
c65.333 -41.333 117 -76.333 155 -105c28.667 -22 43 -39 43 -51z" />
    <glyph glyph-name="eacute" unicode="&#xe9;" horiz-adv-x="573" 
d="M531 169c0 -10.667 -3.50098 -21.501 -10.501 -32.501l-21.5 -32.5c-22.667 -34 -53.334 -61.833 -92.001 -83.5s-76 -32.5 -112 -32.5c-43.333 0 -87 16 -131 48c-22.667 16.667 -45.667 42.667 -69 78c-37.333 56.667 -56 116.667 -56 180v3
c0 92.667 32.667 166.667 98 222c9.33301 8 30 17.333 62 28c14 4.66699 33.333 7 58 7c22.667 0 43.334 -1.33301 62.001 -4c16 -2 43 -16.333 81 -43l41 -26c8.66699 -6.66699 18.667 -19.667 30 -39c28 -47.333 43 -75.666 45 -84.999c4 -6 6 -14.333 6 -25
c0 -33.333 -19.667 -55 -59 -65c-41.333 -10 -83 -18 -125 -24c-37.333 -6.66699 -93 -16 -167 -28c22.667 -65.333 63.667 -98 123 -98c24.667 0 46.667 6.33301 66 19c13.333 9.33301 30 25.333 50 48c24.667 29.333 50.334 44 77.001 44c13.333 0 24 -6.16699 32 -18.5
s12 -25.833 12 -40.5zM401.999 366.999c-8 16.667 -23 35 -45 55s-41 31.333 -57 34h-14c-63.333 0 -104 -43.333 -122 -130c21.333 4.66699 53.333 11 96 19c32 4.66699 79.333 12 142 22zM436.999 768.999c0 -8.66699 -2.00098 -16.667 -6.00098 -24
c-2 -4 -48.667 -35.333 -140 -94l-59 -40c-9.33301 -6 -18.333 -12.333 -27 -19c-10.667 -6.66699 -20.667 -10 -30 -10c-13.333 0 -25.666 4 -36.999 12c-13.333 9.33301 -20 20.333 -20 33c0 12 14.333 29 43 51c38 28.667 89.667 63.667 155 105
c36.667 23.333 62.667 35 78 35c28.667 0 43 -16.333 43 -49z" />
    <glyph glyph-name="ecircumflex" unicode="&#xea;" horiz-adv-x="577" 
d="M532 169c0 -10.667 -3.50098 -21.501 -10.501 -32.501l-21.5 -32.5c-22.667 -34 -53.334 -61.833 -92.001 -83.5s-76 -32.5 -112 -32.5c-43.333 0 -87 16 -131 48c-22.667 16.667 -45.667 42.667 -69 78c-37.333 56.667 -56 116.667 -56 180v3
c0 92.667 32.667 166.667 98 222c9.33301 8 30 17.333 62 28c14 4.66699 33.333 7 58 7c22.667 0 43.334 -1.33301 62.001 -4c16 -2 43 -16.333 81 -43l41 -26c8.66699 -6.66699 18.667 -19.667 30 -39c28 -47.333 43 -75.666 45 -84.999c4 -6 6 -14.333 6 -25
c0 -33.333 -19.667 -55 -59 -65c-41.333 -10 -83 -18 -125 -24c-37.333 -6.66699 -93 -16 -167 -28c22.667 -65.333 63.667 -98 123 -98c24.667 0 46.667 6.33301 66 19c13.333 9.33301 30 25.333 50 48c24.667 29.333 50.334 44 77.001 44c13.333 0 24 -6.16699 32 -18.5
s12 -25.833 12 -40.5zM402.999 366.999c-8 16.667 -23 35 -45 55s-41 31.333 -57 34h-14c-63.333 0 -104 -43.333 -122 -130c21.333 4.66699 53.333 11 96 19c32 4.66699 79.333 12 142 22zM438.999 622.999c0 -10 -4.50195 -18.335 -13.502 -25.002s-18.833 -10 -29.5 -10
c-26 0 -46.667 10.833 -62 32.5s-37.333 54.834 -66 99.501c-6 8 -14.333 20.333 -25 37l-44 -116l-11 -26c-4.66699 -11.333 -10.667 -19.666 -18 -24.999c-11.333 -7.33301 -22.666 -11 -33.999 -11c-12 0 -22.167 4.16699 -30.5 12.5s-12.5 18.5 -12.5 30.5
c0 8 3.33301 18.667 10 32c4.66699 10.667 9.66699 21.5 15 32.5s13 28 23 51l29 69.5c14 34 24.833 55.333 32.5 64s16.834 13 27.501 13c20.667 0 39.667 -12.667 57 -38l69 -102l49 -65l20.5 -28.5c9 -12.333 13.5 -21.5 13.5 -27.5z" />
    <glyph glyph-name="edieresis" unicode="&#xeb;" horiz-adv-x="566" 
d="M522 169c0 -10.667 -3.50098 -21.501 -10.501 -32.501l-21.5 -32.5c-22.667 -34 -53.334 -61.833 -92.001 -83.5s-76 -32.5 -112 -32.5c-43.333 0 -87 16 -131 48c-22.667 16.667 -45.667 42.667 -69 78c-37.333 56.667 -56 116.667 -56 180v3
c0 92.667 32.667 166.667 98 222c9.33301 8 30 17.333 62 28c14 4.66699 33.333 7 58 7c22.667 0 43.334 -1.33301 62.001 -4c16 -2 43 -16.333 81 -43l41 -26c8.66699 -6.66699 18.667 -19.667 30 -39c28 -47.333 43 -75.666 45 -84.999c4 -6 6 -14.333 6 -25
c0 -33.333 -19.667 -55 -59 -65c-41.333 -10 -83 -18 -125 -24c-37.333 -6.66699 -93 -16 -167 -28c22.667 -65.333 63.667 -98 123 -98c24.667 0 46.667 6.33301 66 19c13.333 9.33301 30 25.333 50 48c24.667 29.333 50.334 44 77.001 44c13.333 0 24 -6.16699 32 -18.5
s12 -25.833 12 -40.5zM392.999 366.999c-8 16.667 -23 35 -45 55s-41 31.333 -57 34h-14c-63.333 0 -104 -43.333 -122 -130c21.333 4.66699 53.333 11 96 19c32 4.66699 79.333 12 142 22zM512.999 667.999c0 -21.333 -8.00098 -38.334 -24.001 -51.001
s-34.667 -19 -56 -19c-20.667 0 -37.667 5.66699 -51 17s-20 27 -20 47c0 8.66699 3.33301 18.334 10 29.001c14.667 24.667 40.334 37 77.001 37c16 0 30.667 -6 44 -18s20 -26 20 -42zM222.998 667.998c0 -21.333 -8.00098 -38.334 -24.001 -51.001s-34.667 -19 -56 -19
c-20.667 0 -37.667 5.66699 -51 17s-20 27 -20 47c0 8.66699 3.33301 18.334 10 29.001c14.667 24.667 40.334 37 77.001 37c16 0 30.667 -6 44 -18s20 -26 20 -42z" />
    <glyph glyph-name="igrave" unicode="&#xec;" horiz-adv-x="265" 
d="M195 466c0 -30.667 -2.00098 -68.667 -6.00098 -114c-2.66699 -38 -5.66699 -76 -9 -114c-1.33301 -25.333 -3 -63.333 -5 -114l-2 -56c-2 -22 -8 -39 -18 -51c-13.333 -16.667 -28.333 -25 -45 -25c-33.333 0 -50 30 -50 90c0 68.667 4.33301 170.667 13 306
c2.66699 40 5.33398 66.667 8.00098 80c6 36 16.333 58.333 31 67c4.66699 3.33301 10.667 5 18 5c18.667 0 34.167 -7.5 46.5 -22.5s18.5 -32.167 18.5 -51.5zM283.999 627c0 -12.667 -6.16602 -23.332 -18.499 -31.999s-25.166 -13 -38.499 -13
c-9.33301 0 -18.833 3.33301 -28.5 10l-28.5 19c-12.667 9.33301 -32.334 22.666 -59.001 39.999c-44.667 28 -91.334 59.333 -140.001 94c-4 7.33301 -6 15.333 -6 24c0 32.667 14.333 49 43 49c15.333 0 41.333 -11.667 78 -35c65.333 -41.333 117 -76.333 155 -105
c28.667 -22 43 -39 43 -51z" />
    <glyph glyph-name="iacute" unicode="&#xed;" horiz-adv-x="302" 
d="M193 466c0 -30.667 -2.00098 -68.667 -6.00098 -114c-2.66699 -38 -5.66699 -76 -9 -114c-1.33301 -25.333 -3 -63.333 -5 -114l-2 -56c-2 -22 -8 -39 -18 -51c-13.333 -16.667 -28.333 -25 -45 -25c-33.333 0 -50 30 -50 90c0 68.667 4.33301 170.667 13 306
c2.66699 40 5.33398 66.667 8.00098 80c6 36 16.333 58.333 31 67c4.66699 3.33301 10.667 5 18 5c18.667 0 34.167 -7.5 46.5 -22.5s18.5 -32.167 18.5 -51.5zM322.999 769c0 -8.66699 -2.00098 -16.667 -6.00098 -24c-2 -4 -48.667 -35.333 -140 -94l-59 -40
c-9.33301 -6 -18.333 -12.333 -27 -19c-10.667 -6.66699 -20.667 -10 -30 -10c-13.333 0 -25.666 4 -36.999 12c-13.333 9.33301 -20 20.333 -20 33c0 12 14.333 29 43 51c38 28.667 89.667 63.667 155 105c36.667 23.333 62.667 35 78 35c28.667 0 43 -16.333 43 -49z" />
    <glyph glyph-name="icircumflex" unicode="&#xee;" horiz-adv-x="360" 
d="M206 466c0 -30.667 -2.00098 -68.667 -6.00098 -114c-2.66699 -38 -5.66699 -76 -9 -114c-1.33301 -25.333 -3 -63.333 -5 -114l-2 -56c-2 -22 -8 -39 -18 -51c-13.333 -16.667 -28.333 -25 -45 -25c-33.333 0 -50 30 -50 90c0 68.667 4.33301 170.667 13 306
c2.66699 40 5.33398 66.667 8.00098 80c6 36 16.333 58.333 31 67c4.66699 3.33301 10.667 5 18 5c18.667 0 34.167 -7.5 46.5 -22.5s18.5 -32.167 18.5 -51.5zM336.999 623c0 -10 -4.50195 -18.335 -13.502 -25.002s-18.833 -10 -29.5 -10c-26 0 -46.667 10.833 -62 32.5
s-37.333 54.834 -66 99.501c-6 8 -14.333 20.333 -25 37l-44 -116l-11 -26c-4.66699 -11.333 -10.667 -19.666 -18 -24.999c-11.333 -7.33301 -22.666 -11 -33.999 -11c-12 0 -22.167 4.16699 -30.5 12.5s-12.5 18.5 -12.5 30.5c0 8 3.33301 18.667 10 32
c4.66699 10.667 9.66699 21.5 15 32.5s13 28 23 51l29 69.5c14 34 24.833 55.333 32.5 64s16.834 13 27.501 13c20.667 0 39.667 -12.667 57 -38l69 -102l49 -65l20.5 -28.5c9 -12.333 13.5 -21.5 13.5 -27.5z" />
    <glyph glyph-name="idieresis" unicode="&#xef;" horiz-adv-x="422" 
d="M208 466c0 -30.667 -2.00098 -68.667 -6.00098 -114c-2.66699 -38 -5.66699 -76 -9 -114c-1.33301 -25.333 -3 -63.333 -5 -114l-2 -56c-2 -22 -8 -39 -18 -51c-13.333 -16.667 -28.333 -25 -45 -25c-33.333 0 -50 30 -50 90c0 68.667 4.33301 170.667 13 306
c2.66699 40 5.33398 66.667 8.00098 80c6 36 16.333 58.333 31 67c4.66699 3.33301 10.667 5 18 5c18.667 0 34.167 -7.5 46.5 -22.5s18.5 -32.167 18.5 -51.5zM422.999 668c0 -21.333 -8.00098 -38.334 -24.001 -51.001s-34.667 -19 -56 -19
c-20.667 0 -37.667 5.66699 -51 17s-20 27 -20 47c0 8.66699 3.33301 18.334 10 29.001c14.667 24.667 40.334 37 77.001 37c16 0 30.667 -6 44 -18s20 -26 20 -42zM132.998 667.999c0 -21.333 -8.00098 -38.334 -24.001 -51.001s-34.667 -19 -56 -19
c-20.667 0 -37.667 5.66699 -51 17s-20 27 -20 47c0 8.66699 3.33301 18.334 10 29.001c14.667 24.667 40.334 37 77.001 37c16 0 30.667 -6 44 -18s20 -26 20 -42z" />
    <glyph glyph-name="eth" unicode="&#xf0;" horiz-adv-x="705" 
d="M687 583c0 -29.333 -24.666 -44.001 -73.999 -44.001c-27.333 0 -48.333 2 -63 6c-0.666992 -51.333 -2 -116.666 -4 -195.999c-1.33301 -50.667 -2.33301 -81 -3 -91c-2 -34 -6.66699 -63.667 -14 -89c-14.667 -51.333 -52.334 -99.333 -113.001 -144
c-36.667 -27.333 -78 -41 -124 -41c-69.333 0 -129.166 24.833 -179.499 74.5s-75.5 109.167 -75.5 178.5c0 70.667 10.333 124.667 31 162c16 29.333 37.667 54.666 65 75.999c45.333 35.333 99 53 161 53c18.667 0 42.167 -3.33301 70.5 -10s49.5 -14.667 63.5 -24l1 64
c-18 0.666992 -36.333 1.83398 -55 3.50098s-35.334 7.16699 -50.001 16.5l-16.5 10c-5.66699 3.33301 -8.5 8.33301 -8.5 15c0 33.333 29.333 50 88 50c8 0 23 -0.666992 45 -2c1.33301 21.333 7.66602 42 18.999 62c14 23.333 31 35 51 35c8.66699 0 15.334 -2 20.001 -6
c15.333 -12.667 24.333 -45.334 27 -98.001l46 -4c23.333 -2 40 -4.66699 50 -8c16.667 -5.33301 29 -15.666 37 -30.999c3.33301 -5.33301 5 -11.333 5 -18zM428.001 295.999c0 55.333 -28.668 94.668 -86.001 118.001c-20.667 8.66699 -38.667 13 -54 13
c-18.667 0 -40 -7 -64 -21c-28.667 -16.667 -50 -42.667 -64 -78c-12 -30.667 -18 -61.334 -18 -92.001c0 -36.667 13.167 -69.667 39.5 -99s57.5 -44 93.5 -44c52.667 0 95.334 26.333 128.001 79c16.667 26 25 67.333 25 124z" />
    <glyph glyph-name="ntilde" unicode="&#xf1;" horiz-adv-x="556" 
d="M504 270c0 -24 -1.99707 -67.3369 -5.99707 -130.004c-5.33301 -71.333 -10 -110.333 -14 -117c-13.333 -22.667 -31 -34 -53 -34c-29.333 0 -44 21.667 -44 65c0 6.66699 0.5 16.167 1.5 28.5s1.5 21.5 1.5 27.5c0 14.667 1 36.834 3 66.501s3 51.834 3 66.501
c0 19.333 -3.33301 42 -10 68s-15 46.333 -25 61c-8 12 -19.667 23.333 -35 34c-19.333 14 -34.666 21 -45.999 21c-15.333 0 -30.833 -4 -46.5 -12s-31.5 -22.833 -47.5 -44.5s-25 -40.5 -27 -56.5c0 -1.33301 -0.666992 -23.333 -2 -66
c-0.666992 -24.667 -3.33398 -64 -8.00098 -118c-5.33301 -63.333 -10.333 -98.666 -15 -105.999c-14 -22 -29 -33 -45 -33c-34 0 -51 40 -51 120c0 68.667 1.66699 148.334 5 239.001c2 21.333 4.66699 53.333 8 96c1.33301 24 3.66602 41.333 6.99902 52
c6 21.333 16.667 33 32 35h17c19.333 0 32.666 -4.33301 39.999 -13l22 -35c22.667 28.667 60 43 112 43c42.667 0 81.167 -11.5 115.5 -34.5s61.166 -54.5 80.499 -94.5c18 -36 27 -79 27 -129zM533.003 726.996c0 -34.667 -18.1689 -69.5039 -54.502 -104.504
s-71.833 -52.5 -106.5 -52.5c-51.333 0 -92.666 26.333 -123.999 79c-5.33301 12.667 -14 31.334 -26 56.001c-7.33301 9.33301 -17.333 24 -30 44c-3.33301 4.66699 -11.833 8.5 -25.5 11.5s-24.5 4.5 -32.5 4.5c-21.333 0 -32 -15.333 -32 -46
c0 -20.667 4.66699 -35.5 14 -44.5s14 -17.5 14 -25.5c0 -10 -4.5 -20.167 -13.5 -30.5s-18.5 -15.5 -28.5 -15.5c-16 0 -31 11.667 -45 35s-21 53 -21 89c0 30.667 8.33301 57.667 25 81c18.667 26.667 42.334 40 71.001 40h17c51.333 0 85.333 -6 102 -18
c25.333 -19.333 42 -37.666 50 -54.999c4.66699 -15.333 13 -38 25 -68c6 -12.667 12.5 -24.834 19.5 -36.501s18.5 -17.5 34.5 -17.5c26 0 49 15.667 69 47c7.33301 10.667 11 27.334 11 50.001c0 4.66699 -2.5 11.167 -7.5 19.5s-7.5 14.833 -7.5 19.5
c0 10.667 5.5 20.334 16.5 29.001s21.5 13 31.5 13c8 0 15.333 -4.33301 22 -13l14 -21c12 -17.333 18 -40.666 18 -69.999z" />
    <glyph glyph-name="ograve" unicode="&#xf2;" horiz-adv-x="593" 
d="M553 237c0 -69.333 -25.332 -128.835 -75.999 -178.502s-110.667 -74.5 -180 -74.5c-62.667 0 -117 23 -163 69c-24.667 24.667 -45.334 58.334 -62.001 101.001c-14.667 38.667 -22 75 -22 109c0 33.333 6.66699 68.333 20 105c11.333 30.667 24.333 55 39 73
c46.667 58 109.667 87 189 87c60.667 0 113.667 -17.667 159 -53c27.333 -21.333 49 -46.666 65 -75.999c20.667 -37.333 31 -91.333 31 -162zM448.001 234.998c0 22 -3.83105 46.334 -11.498 73.001s-17.5 48 -29.5 64c-10 12.667 -23.667 24 -41 34
c-24.667 14 -46.334 21 -65.001 21c-14.667 0 -32.334 -4.33301 -53.001 -13c-60 -24.667 -89.667 -69.334 -89 -134.001v-15c0.666992 -34 9.66699 -65 27 -93c33.333 -52.667 74.666 -79 123.999 -79c54.667 0 95.334 26.333 122.001 79c10.667 22 16 43 16 63z
M431.003 626.999c0 -12.667 -6.16602 -23.332 -18.499 -31.999s-25.166 -13 -38.499 -13c-9.33301 0 -18.833 3.33301 -28.5 10l-28.5 19c-12.667 9.33301 -32.334 22.666 -59.001 39.999c-44.667 28 -91.334 59.333 -140.001 94c-4 7.33301 -6 15.333 -6 24
c0 32.667 14.333 49 43 49c15.333 0 41.333 -11.667 78 -35c65.333 -41.333 117 -76.333 155 -105c28.667 -22 43 -39 43 -51z" />
    <glyph glyph-name="oacute" unicode="&#xf3;" horiz-adv-x="587" 
d="M552 237c0 -69.333 -25.332 -128.835 -75.999 -178.502s-110.667 -74.5 -180 -74.5c-62.667 0 -117 23 -163 69c-24.667 24.667 -45.334 58.334 -62.001 101.001c-14.667 38.667 -22 75 -22 109c0 33.333 6.66699 68.333 20 105c11.333 30.667 24.333 55 39 73
c46.667 58 109.667 87 189 87c60.667 0 113.667 -17.667 159 -53c27.333 -21.333 49 -46.666 65 -75.999c20.667 -37.333 31 -91.333 31 -162zM447.001 234.998c0 22 -3.83105 46.334 -11.498 73.001s-17.5 48 -29.5 64c-10 12.667 -23.667 24 -41 34
c-24.667 14 -46.334 21 -65.001 21c-14.667 0 -32.334 -4.33301 -53.001 -13c-60 -24.667 -89.667 -69.334 -89 -134.001v-15c0.666992 -34 9.66699 -65 27 -93c33.333 -52.667 74.666 -79 123.999 -79c54.667 0 95.334 26.333 122.001 79c10.667 22 16 43 16 63z
M451.003 768.999c0 -8.66699 -2.00098 -16.667 -6.00098 -24c-2 -4 -48.667 -35.333 -140 -94l-59 -40c-9.33301 -6 -18.333 -12.333 -27 -19c-10.667 -6.66699 -20.667 -10 -30 -10c-13.333 0 -25.666 4 -36.999 12c-13.333 9.33301 -20 20.333 -20 33
c0 12 14.333 29 43 51c38 28.667 89.667 63.667 155 105c36.667 23.333 62.667 35 78 35c28.667 0 43 -16.333 43 -49z" />
    <glyph glyph-name="ocircumflex" unicode="&#xf4;" horiz-adv-x="594" 
d="M553 237c0 -69.333 -25.332 -128.835 -75.999 -178.502s-110.667 -74.5 -180 -74.5c-62.667 0 -117 23 -163 69c-24.667 24.667 -45.334 58.334 -62.001 101.001c-14.667 38.667 -22 75 -22 109c0 33.333 6.66699 68.333 20 105c11.333 30.667 24.333 55 39 73
c46.667 58 109.667 87 189 87c60.667 0 113.667 -17.667 159 -53c27.333 -21.333 49 -46.666 65 -75.999c20.667 -37.333 31 -91.333 31 -162zM448.001 234.998c0 22 -3.83105 46.334 -11.498 73.001s-17.5 48 -29.5 64c-10 12.667 -23.667 24 -41 34
c-24.667 14 -46.334 21 -65.001 21c-14.667 0 -32.334 -4.33301 -53.001 -13c-60 -24.667 -89.667 -69.334 -89 -134.001v-15c0.666992 -34 9.66699 -65 27 -93c33.333 -52.667 74.666 -79 123.999 -79c54.667 0 95.334 26.333 122.001 79c10.667 22 16 43 16 63z
M443.003 622.999c0 -10 -4.50195 -18.335 -13.502 -25.002s-18.833 -10 -29.5 -10c-26 0 -46.667 10.833 -62 32.5s-37.333 54.834 -66 99.501c-6 8 -14.333 20.333 -25 37l-44 -116l-11 -26c-4.66699 -11.333 -10.667 -19.666 -18 -24.999
c-11.333 -7.33301 -22.666 -11 -33.999 -11c-12 0 -22.167 4.16699 -30.5 12.5s-12.5 18.5 -12.5 30.5c0 8 3.33301 18.667 10 32c4.66699 10.667 9.66699 21.5 15 32.5s13 28 23 51l29 69.5c14 34 24.833 55.333 32.5 64s16.834 13 27.501 13
c20.667 0 39.667 -12.667 57 -38l69 -102l49 -65l20.5 -28.5c9 -12.333 13.5 -21.5 13.5 -27.5z" />
    <glyph glyph-name="otilde" unicode="&#xf5;" horiz-adv-x="596" 
d="M554 237c0 -69.333 -25.332 -128.835 -75.999 -178.502s-110.667 -74.5 -180 -74.5c-62.667 0 -117 23 -163 69c-24.667 24.667 -45.334 58.334 -62.001 101.001c-14.667 38.667 -22 75 -22 109c0 33.333 6.66699 68.333 20 105c11.333 30.667 24.333 55 39 73
c46.667 58 109.667 87 189 87c60.667 0 113.667 -17.667 159 -53c27.333 -21.333 49 -46.666 65 -75.999c20.667 -37.333 31 -91.333 31 -162zM449.001 234.998c0 22 -3.83105 46.334 -11.498 73.001s-17.5 48 -29.5 64c-10 12.667 -23.667 24 -41 34
c-24.667 14 -46.334 21 -65.001 21c-14.667 0 -32.334 -4.33301 -53.001 -13c-60 -24.667 -89.667 -69.334 -89 -134.001v-15c0.666992 -34 9.66699 -65 27 -93c33.333 -52.667 74.666 -79 123.999 -79c54.667 0 95.334 26.333 122.001 79c10.667 22 16 43 16 63z
M545.003 726.999c0 -34.667 -18.1689 -69.5039 -54.502 -104.504s-71.833 -52.5 -106.5 -52.5c-51.333 0 -92.666 26.333 -123.999 79c-5.33301 12.667 -14 31.334 -26 56.001c-7.33301 9.33301 -17.333 24 -30 44c-3.33301 4.66699 -11.833 8.5 -25.5 11.5
s-24.5 4.5 -32.5 4.5c-21.333 0 -32 -15.333 -32 -46c0 -20.667 4.66699 -35.5 14 -44.5s14 -17.5 14 -25.5c0 -10 -4.5 -20.167 -13.5 -30.5s-18.5 -15.5 -28.5 -15.5c-16 0 -31 11.667 -45 35s-21 53 -21 89c0 30.667 8.33301 57.667 25 81
c18.667 26.667 42.334 40 71.001 40h17c51.333 0 85.333 -6 102 -18c25.333 -19.333 42 -37.666 50 -54.999c4.66699 -15.333 13 -38 25 -68c6 -12.667 12.5 -24.834 19.5 -36.501s18.5 -17.5 34.5 -17.5c26 0 49 15.667 69 47c7.33301 10.667 11 27.334 11 50.001
c0 4.66699 -2.5 11.167 -7.5 19.5s-7.5 14.833 -7.5 19.5c0 10.667 5.5 20.334 16.5 29.001s21.5 13 31.5 13c8 0 15.333 -4.33301 22 -13l14 -21c12 -17.333 18 -40.666 18 -69.999z" />
    <glyph glyph-name="odieresis" unicode="&#xf6;" horiz-adv-x="591" 
d="M550 237c0 -69.333 -25.332 -128.835 -75.999 -178.502s-110.667 -74.5 -180 -74.5c-62.667 0 -117 23 -163 69c-24.667 24.667 -45.334 58.334 -62.001 101.001c-14.667 38.667 -22 75 -22 109c0 33.333 6.66699 68.333 20 105c11.333 30.667 24.333 55 39 73
c46.667 58 109.667 87 189 87c60.667 0 113.667 -17.667 159 -53c27.333 -21.333 49 -46.666 65 -75.999c20.667 -37.333 31 -91.333 31 -162zM445.001 234.998c0 22 -3.83105 46.334 -11.498 73.001s-17.5 48 -29.5 64c-10 12.667 -23.667 24 -41 34
c-24.667 14 -46.334 21 -65.001 21c-14.667 0 -32.334 -4.33301 -53.001 -13c-60 -24.667 -89.667 -69.334 -89 -134.001v-15c0.666992 -34 9.66699 -65 27 -93c33.333 -52.667 74.666 -79 123.999 -79c54.667 0 95.334 26.333 122.001 79c10.667 22 16 43 16 63z
M524.003 667.999c0 -21.333 -8.00098 -38.334 -24.001 -51.001s-34.667 -19 -56 -19c-20.667 0 -37.667 5.66699 -51 17s-20 27 -20 47c0 8.66699 3.33301 18.334 10 29.001c14.667 24.667 40.334 37 77.001 37c16 0 30.667 -6 44 -18s20 -26 20 -42zM234.002 667.998
c0 -21.333 -8.00098 -38.334 -24.001 -51.001s-34.667 -19 -56 -19c-20.667 0 -37.667 5.66699 -51 17s-20 27 -20 47c0 8.66699 3.33301 18.334 10 29.001c14.667 24.667 40.334 37 77.001 37c16 0 30.667 -6 44 -18s20 -26 20 -42z" />
    <glyph glyph-name="divide" unicode="&#xf7;" horiz-adv-x="540" 
d="M349 450c0 -16 -6 -30.6689 -18 -44.002s-26 -20 -42 -20c-22 0 -39.333 8.33301 -52 25s-19 36.334 -19 59.001c0 18.667 5.83301 34.334 17.5 47.001s26.5 19 44.5 19c22 0 39 -8.5 51 -25.5s18 -37.167 18 -60.5zM525 255.998c0 -30 -24.332 -45 -72.999 -45
c-23.333 0 -53.333 2 -90 6c-50 5.33301 -79.667 8.33301 -89 9c-44 2.66699 -92.667 4.66699 -146 6c-18.667 0.666992 -31.667 1.66699 -39 3c-10.667 2 -22.334 7 -35.001 15l-16.5 10.5c-5.66699 3.66699 -8.5 8.5 -8.5 14.5c0 34 30 51 90 51
c39.333 0 124.666 -4.66699 255.999 -14c40.667 -2.66699 67.334 -5 80.001 -7c36 -6 58.333 -16.333 67 -31c2.66699 -5.33301 4 -11.333 4 -18zM349.001 49.998c0 -16 -6 -30.6689 -18 -44.002s-26 -20 -42 -20c-22 0 -39.333 8.33301 -52 25s-19 36.334 -19 59.001
c0 18.667 5.83301 34.334 17.5 47.001s26.5 19 44.5 19c22 0 39 -8.5 51 -25.5s18 -37.167 18 -60.5z" />
    <glyph glyph-name="oslash" unicode="&#xf8;" horiz-adv-x="596" 
d="M548 237c0 -71.333 -25.334 -131.168 -76.001 -179.501s-112 -72.5 -184 -72.5c-24.667 0 -49 4.33301 -73 13c-16.667 -30 -35 -52.333 -55 -67c-26.667 -20 -48 -30 -64 -30c-14.667 0 -22 6.33301 -22 19c0 14 7.66699 36 23 66l35 65
c-26 25.333 -46.833 57.833 -62.5 97.5s-23.5 77.834 -23.5 114.501c0 33.333 6.66699 68.333 20 105c11.333 31.333 24 55.666 38 72.999c47.333 58 110.333 87 189 87c40 0 74 -6 102 -18c46.667 73.333 84.334 110 113.001 110c21.333 0 32 -11.667 32 -35
c0 -7.33301 -1 -16 -3 -26c-2 -7.33301 -21.667 -42.666 -59 -105.999c46.667 -46 70 -118 70 -216zM443.999 236.998c0 36.667 -8.99805 73.667 -26.998 111l-80 -133l-65 -118c11.333 -2.66699 22.666 -4 33.999 -4c37.333 0 69.666 14.5 96.999 43.5s41 62.5 41 100.5z
M339.001 417.998c-13.333 6 -27 9.00098 -41 9.00098c-16 0 -34.333 -4.33301 -55 -13c-58.667 -24.667 -88 -69.334 -88 -134.001c0 -30 1.83301 -51.5 5.5 -64.5s13.5 -31.5 29.5 -55.5z" />
    <glyph glyph-name="ugrave" unicode="&#xf9;" horiz-adv-x="559" 
d="M516 405c0 -68.667 -1.66895 -148.33 -5.00195 -238.997l-9 -96c-1.33301 -24 -3.66602 -41.333 -6.99902 -52c-6 -21.333 -16.667 -33 -32 -35c-4.66699 -0.666992 -10.334 -1 -17.001 -1c-19.333 0 -32.666 4.66699 -39.999 14l-22 35c-22 -28.667 -59 -43 -111 -43
c-42.667 0 -81.334 11.5 -116.001 34.5s-61.667 54.5 -81 94.5c-18 36 -27 79 -27 129c0 24 2.33301 67.333 7 130c4.66699 71.333 9 110.333 13 117c13.333 22.667 31.333 34 54 34c28.667 0 43 -21.667 43 -65c0 -6.66699 -0.5 -16.167 -1.5 -28.5s-1.5 -21.5 -1.5 -27.5
c0 -14.667 -1 -36.834 -3 -66.501s-3 -51.834 -3 -66.501c0 -19.333 3.5 -42 10.5 -68s15.167 -46.333 24.5 -61c8 -12 19.667 -23.333 35 -34c20 -14 35.667 -21 47 -21c15.333 0 30.833 4 46.5 12s31.334 22.833 47.001 44.5s24.5 40.5 26.5 56.5
c0 1.33301 0.666992 23.333 2 66c0.666992 24.667 3.33398 64 8.00098 118c5.33301 63.333 10.333 98.666 15 105.999c14 22 29.333 33 46 33c34 0 51 -40 51 -120zM421.998 627.004c0 -12.667 -6.16602 -23.332 -18.499 -31.999s-25.166 -13 -38.499 -13
c-9.33301 0 -18.833 3.33301 -28.5 10l-28.5 19c-12.667 9.33301 -32.334 22.666 -59.001 39.999c-44.667 28 -91.334 59.333 -140.001 94c-4 7.33301 -6 15.333 -6 24c0 32.667 14.333 49 43 49c15.333 0 41.333 -11.667 78 -35c65.333 -41.333 117 -76.333 155 -105
c28.667 -22 43 -39 43 -51z" />
    <glyph glyph-name="uacute" unicode="&#xfa;" horiz-adv-x="554" 
d="M507 405c0 -68.667 -1.66895 -148.33 -5.00195 -238.997l-9 -96c-1.33301 -24 -3.66602 -41.333 -6.99902 -52c-6 -21.333 -16.667 -33 -32 -35c-4.66699 -0.666992 -10.334 -1 -17.001 -1c-19.333 0 -32.666 4.66699 -39.999 14l-22 35c-22 -28.667 -59 -43 -111 -43
c-42.667 0 -81.334 11.5 -116.001 34.5s-61.667 54.5 -81 94.5c-18 36 -27 79 -27 129c0 24 2.33301 67.333 7 130c4.66699 71.333 9 110.333 13 117c13.333 22.667 31.333 34 54 34c28.667 0 43 -21.667 43 -65c0 -6.66699 -0.5 -16.167 -1.5 -28.5s-1.5 -21.5 -1.5 -27.5
c0 -14.667 -1 -36.834 -3 -66.501s-3 -51.834 -3 -66.501c0 -19.333 3.5 -42 10.5 -68s15.167 -46.333 24.5 -61c8 -12 19.667 -23.333 35 -34c20 -14 35.667 -21 47 -21c15.333 0 30.833 4 46.5 12s31.334 22.833 47.001 44.5s24.5 40.5 26.5 56.5
c0 1.33301 0.666992 23.333 2 66c0.666992 24.667 3.33398 64 8.00098 118c5.33301 63.333 10.333 98.666 15 105.999c14 22 29.333 33 46 33c34 0 51 -40 51 -120zM423.998 769.004c0 -8.66699 -2.00098 -16.667 -6.00098 -24c-2 -4 -48.667 -35.333 -140 -94l-59 -40
c-9.33301 -6 -18.333 -12.333 -27 -19c-10.667 -6.66699 -20.667 -10 -30 -10c-13.333 0 -25.666 4 -36.999 12c-13.333 9.33301 -20 20.333 -20 33c0 12 14.333 29 43 51c38 28.667 89.667 63.667 155 105c36.667 23.333 62.667 35 78 35c28.667 0 43 -16.333 43 -49z" />
    <glyph glyph-name="ucircumflex" unicode="&#xfb;" horiz-adv-x="563" 
d="M516 405c0 -68.667 -1.66895 -148.33 -5.00195 -238.997l-9 -96c-1.33301 -24 -3.66602 -41.333 -6.99902 -52c-6 -21.333 -16.667 -33 -32 -35c-4.66699 -0.666992 -10.334 -1 -17.001 -1c-19.333 0 -32.666 4.66699 -39.999 14l-22 35c-22 -28.667 -59 -43 -111 -43
c-42.667 0 -81.334 11.5 -116.001 34.5s-61.667 54.5 -81 94.5c-18 36 -27 79 -27 129c0 24 2.33301 67.333 7 130c4.66699 71.333 9 110.333 13 117c13.333 22.667 31.333 34 54 34c28.667 0 43 -21.667 43 -65c0 -6.66699 -0.5 -16.167 -1.5 -28.5s-1.5 -21.5 -1.5 -27.5
c0 -14.667 -1 -36.834 -3 -66.501s-3 -51.834 -3 -66.501c0 -19.333 3.5 -42 10.5 -68s15.167 -46.333 24.5 -61c8 -12 19.667 -23.333 35 -34c20 -14 35.667 -21 47 -21c15.333 0 30.833 4 46.5 12s31.334 22.833 47.001 44.5s24.5 40.5 26.5 56.5
c0 1.33301 0.666992 23.333 2 66c0.666992 24.667 3.33398 64 8.00098 118c5.33301 63.333 10.333 98.666 15 105.999c14 22 29.333 33 46 33c34 0 51 -40 51 -120zM433.998 623.004c0 -10 -4.50195 -18.335 -13.502 -25.002s-18.833 -10 -29.5 -10
c-26 0 -46.667 10.833 -62 32.5s-37.333 54.834 -66 99.501c-6 8 -14.333 20.333 -25 37l-44 -116l-11 -26c-4.66699 -11.333 -10.667 -19.666 -18 -24.999c-11.333 -7.33301 -22.666 -11 -33.999 -11c-12 0 -22.167 4.16699 -30.5 12.5s-12.5 18.5 -12.5 30.5
c0 8 3.33301 18.667 10 32c4.66699 10.667 9.66699 21.5 15 32.5s13 28 23 51l29 69.5c14 34 24.833 55.333 32.5 64s16.834 13 27.501 13c20.667 0 39.667 -12.667 57 -38l69 -102l49 -65l20.5 -28.5c9 -12.333 13.5 -21.5 13.5 -27.5z" />
    </font>
</defs>
</svg>
